osu file format v14

[General]
AudioFilename: Taishi - goldenslaughterer (Taishi's VW2 Edit).mp3
AudioLeadIn: 1500
PreviewTime: 218801
Countdown: 0
SampleSet: Normal
StackLeniency: 0.7
Mode: 1
LetterboxInBreaks: 0
WidescreenStoryboard: 0

[Editor]
DistanceSpacing: 0.8
BeatDivisor: 4
GridSize: 8
TimelineZoom: 1.44

[Metadata]
Title:goldenslaughterer(Taishi's VW2 Edit)
TitleUnicode:goldenslaughterer(Taishi's VW2 Edit)
Artist:Taishi
ArtistUnicode:泰志
Creator:CoroQuetz
Version:onislaughterer
Source:Umineko no Naku Koro ni
Tags:beatrice 07th expansion when they cry remix vague in winter code zts label
BeatmapID:326926
BeatmapSetID:129354

[Difficulty]
HPDrainRate:5
CircleSize:5
OverallDifficulty:5
ApproachRate:5
SliderMultiplier:1.4
SliderTickRate:1

[Events]
//Background and Video events
0,0,"bg.jpg",0,50
//Break Periods
//Storyboard Layer 0 (Background)
//Storyboard Layer 1 (Fail)
//Storyboard Layer 2 (Pass)
//Storyboard Layer 3 (Foreground)
//Storyboard Sound Samples
//Background Colour Transformations
3,100,163,162,255

[TimingPoints]
57088,434.782608695652,4,1,0,50,1,0
126653,-95.2380952380952,4,1,0,60,0,1
127522,-90.9090909090909,4,1,0,60,0,1
128392,-86.9565217391304,4,1,0,80,0,0
184153,-100,4,1,0,60,0,0
185348,-200,4,1,0,60,0,0
213609,-100,4,1,0,60,0,0
218827,-80,4,1,0,80,0,1
274914,434.782608695652,4,1,0,60,1,0
274914,-50,4,1,0,60,0,0
288827,-100,4,1,0,60,0,0
328827,-83.3333333333333,4,1,0,60,0,0
340566,-84.0336134453781,4,1,0,60,0,0
340674,-84.7457627118644,4,1,0,60,0,0
340892,-86.2068965517241,4,1,0,60,0,0
340892,-86.9565217391304,4,1,0,60,0,0
341000,-86.2068965517241,4,1,0,60,0,0
341218,-87.719298245614,4,1,0,60,0,0
341327,-88.4955752212389,4,1,0,60,0,0
341544,-90.9090909090909,4,1,0,60,0,0
341544,-90.0900900900901,4,1,0,60,0,0
341653,-90.9090909090909,4,1,0,60,0,0
341870,-92.5925925925926,4,1,0,60,0,0
341979,-93.4579439252336,4,1,0,60,0,0
342087,-94.3396226415094,4,1,0,60,0,0
342196,-95.2380952380952,4,1,0,60,0,0
342305,-96.1538461538461,4,1,0,60,0,0
342414,-97.0873786407767,4,1,0,60,0,0
342522,-98.0392156862745,4,1,0,60,0,0
342631,-99.009900990099,4,1,0,60,0,0
342740,-100,4,1,0,60,0,0
354805,-95.2380952380952,4,1,0,60,0,0
355348,-92.5925925925926,4,1,0,60,0,0
355783,-89.2857142857143,4,1,0,60,0,0
356000,-87.719298245614,4,1,0,60,0,0
356218,-86.2068965517241,4,1,0,60,0,0
356327,-85.4700854700855,4,1,0,60,0,0
356435,-84.7457627118644,4,1,0,60,0,0
356544,-84.0336134453781,4,1,0,60,0,0
356653,-83.3333333333333,4,1,0,80,0,0
383609,-76.9230769230769,4,1,0,80,0,0
383718,-75.7575757575758,4,1,0,80,0,0
383827,-74.0740740740741,4,1,0,80,0,0
383935,-72.992700729927,4,1,0,80,0,0
384044,-71.4285714285714,4,1,0,80,0,0
384153,-70.4225352112676,4,1,0,80,0,0
384261,-68.9655172413793,4,1,0,80,0,0
384370,-68.0272108843537,4,1,0,80,0,0
384479,-66.6666666666667,4,1,0,90,0,0
400131,-100,4,1,0,90,0,0
401870,-100,4,1,0,80,0,0
455783,-100,4,1,0,80,0,0
456653,-97.0873786407767,4,1,0,80,0,0
456798,-94.3396226415094,4,1,0,80,0,0
456942,-91.743119266055,4,1,0,80,0,0
457087,-89.2857142857143,4,1,0,80,0,0
457232,-86.9565217391304,4,1,0,80,0,0
457377,-84.7457627118644,4,1,0,80,0,0
457522,-83.3333333333333,4,1,0,80,0,1
488827,-83.3333333333333,4,1,0,80,0,0
492305,-83.3333333333333,4,1,0,80,0,1
495783,-83.3333333333333,4,1,0,80,0,0
512957,-90.9090909090909,4,1,0,80,0,0
513174,-200,4,1,0,60,0,0
527087,-133.333333333333,4,1,0,60,0,0
541000,-100,4,1,0,60,0,1
568827,-100,4,1,0,60,0,0

[HitObjects]
248,200,58827,5,0,0:0:0:0:
248,200,59044,1,0,0:0:0:0:
248,200,59261,1,8,0:0:0:0:
248,200,59479,1,0,0:0:0:0:
248,200,59696,1,0,0:0:0:0:
248,200,59914,1,0,0:0:0:0:
248,200,59986,1,0,0:0:0:0:
248,200,60059,1,0,0:0:0:0:
248,200,60131,1,8,0:0:0:0:
248,200,60348,1,0,0:0:0:0:
248,200,60566,1,0,0:0:0:0:
248,200,60783,1,0,0:0:0:0:
248,200,61001,1,8,0:0:0:0:
248,200,61218,1,0,0:0:0:0:
248,200,61435,1,0,0:0:0:0:
248,200,61653,1,0,0:0:0:0:
248,200,61725,1,0,0:0:0:0:
248,200,61798,1,0,0:0:0:0:
248,200,61870,1,8,0:0:0:0:
256,216,64044,1,8,0:0:0:0:
248,200,65783,1,0,0:0:0:0:
248,200,66001,1,0,0:0:0:0:
248,200,66218,1,8,0:0:0:0:
248,200,66435,1,0,0:0:0:0:
248,200,66653,1,0,0:0:0:0:
248,200,66870,1,0,0:0:0:0:
248,200,66943,1,0,0:0:0:0:
248,200,67015,1,0,0:0:0:0:
248,200,67088,1,8,0:0:0:0:
248,200,67305,1,0,0:0:0:0:
248,200,67522,1,0,0:0:0:0:
248,200,67740,1,0,0:0:0:0:
248,200,67957,1,8,0:0:0:0:
248,200,68174,1,0,0:0:0:0:
248,200,68392,1,8,0:0:0:0:
248,200,69261,1,0,0:0:0:0:
248,200,72740,1,0,0:0:0:0:
248,200,72957,1,0,0:0:0:0:
248,200,73174,1,8,0:0:0:0:
248,200,73392,1,0,0:0:0:0:
248,200,73609,1,0,0:0:0:0:
248,200,73827,1,0,0:0:0:0:
248,200,73899,1,0,0:0:0:0:
248,200,73972,1,0,0:0:0:0:
248,200,74044,1,8,0:0:0:0:
248,200,74261,1,0,0:0:0:0:
248,200,74479,1,0,0:0:0:0:
248,200,74696,1,0,0:0:0:0:
248,200,74914,1,8,0:0:0:0:
248,200,75131,1,0,0:0:0:0:
248,200,75348,1,0,0:0:0:0:
248,200,75566,1,0,0:0:0:0:
248,200,75638,1,0,0:0:0:0:
248,200,75711,1,0,0:0:0:0:
248,200,75783,1,8,0:0:0:0:
216,216,76218,1,0,0:0:0:0:
216,216,77088,1,0,0:0:0:0:
256,216,77522,1,8,0:0:0:0:
232,224,77957,1,0,0:0:0:0:
232,224,78827,1,0,0:0:0:0:
232,224,79261,1,8,0:0:0:0:
248,200,79696,1,0,0:0:0:0:
248,200,79914,1,0,0:0:0:0:
248,200,80131,1,8,0:0:0:0:
248,200,80348,1,0,0:0:0:0:
248,200,80566,1,0,0:0:0:0:
248,200,80783,1,0,0:0:0:0:
248,200,80856,1,0,0:0:0:0:
248,200,80928,1,0,0:0:0:0:
248,200,81001,1,8,0:0:0:0:
248,200,81218,1,0,0:0:0:0:
248,200,81435,1,0,0:0:0:0:
248,200,81653,1,0,0:0:0:0:
248,200,81870,1,8,0:0:0:0:
248,200,82088,1,0,0:0:0:0:
248,200,82305,1,8,0:0:0:0:
208,208,83174,1,8,0:0:0:0:
240,208,83609,1,0,0:0:0:0:
240,208,84479,1,0,0:0:0:0:
256,216,85348,1,0,0:0:0:0:
232,208,86218,1,0,0:0:0:0:
248,200,86653,1,0,0:0:0:0:
248,200,86870,1,0,0:0:0:0:
248,200,87087,1,8,0:0:0:0:
248,200,87305,1,0,0:0:0:0:
248,200,87522,1,0,0:0:0:0:
248,200,87740,1,0,0:0:0:0:
248,200,87812,1,0,0:0:0:0:
248,200,87885,1,0,0:0:0:0:
248,200,87957,1,8,0:0:0:0:
248,200,88174,1,0,0:0:0:0:
248,200,88392,1,0,0:0:0:0:
248,200,88609,1,0,0:0:0:0:
248,200,88827,1,8,0:0:0:0:
248,200,89044,1,0,0:0:0:0:
248,200,89261,1,0,0:0:0:0:
248,200,89479,1,0,0:0:0:0:
248,200,89551,1,0,0:0:0:0:
248,200,89624,1,0,0:0:0:0:
248,200,89696,1,8,0:0:0:0:
248,200,90131,1,0,0:0:0:0:
248,200,90566,1,0,0:0:0:0:
248,200,91001,1,0,0:0:0:0:
256,216,91435,1,8,0:0:0:0:
256,216,91653,1,0,0:0:0:0:
248,200,91870,1,0,0:0:0:0:
248,200,92305,1,0,0:0:0:0:
256,216,92740,1,0,0:0:0:0:
248,200,93174,1,8,0:0:0:0:
248,200,93609,1,0,0:0:0:0:
248,200,93827,1,0,0:0:0:0:
248,200,94044,1,8,0:0:0:0:
248,200,94261,1,0,0:0:0:0:
248,200,94479,1,0,0:0:0:0:
248,200,94696,1,0,0:0:0:0:
248,200,94769,1,0,0:0:0:0:
248,200,94841,1,0,0:0:0:0:
248,200,94914,1,8,0:0:0:0:
248,200,95131,1,0,0:0:0:0:
248,200,95348,1,0,0:0:0:0:
248,200,95566,1,0,0:0:0:0:
248,200,95783,1,8,0:0:0:0:
248,200,96001,1,0,0:0:0:0:
248,200,96218,1,0,0:0:0:0:
248,200,96653,1,8,0:0:0:0:
248,200,97087,1,0,0:0:0:0:
248,200,97522,1,0,0:0:0:0:
248,200,97957,1,0,0:0:0:0:
256,216,98392,1,8,0:0:0:0:
248,200,98609,1,0,0:0:0:0:
248,200,98827,1,0,0:0:0:0:
248,200,99261,1,0,0:0:0:0:
256,216,99696,1,0,0:0:0:0:
248,200,100131,1,8,0:0:0:0:
248,200,100348,1,0,0:0:0:0:
248,200,100457,1,0,0:0:0:0:
248,200,100566,1,0,0:0:0:0:
248,200,100783,1,0,0:0:0:0:
256,216,101001,1,8,0:0:0:0:
256,216,101218,1,0,0:0:0:0:
248,200,101435,1,0,0:0:0:0:
248,200,101653,1,0,0:0:0:0:
248,200,101725,1,0,0:0:0:0:
248,200,101798,1,0,0:0:0:0:
248,200,101870,1,8,0:0:0:0:
248,200,102087,1,0,0:0:0:0:
248,200,102305,1,0,0:0:0:0:
248,200,102522,1,0,0:0:0:0:
256,216,102740,1,8,0:0:0:0:
256,216,102957,1,0,0:0:0:0:
248,200,103174,1,0,0:0:0:0:
248,200,103392,1,8,0:0:0:0:
248,200,103464,1,0,0:0:0:0:
248,200,103537,1,0,0:0:0:0:
248,200,103609,1,8,0:0:0:0:
256,216,104044,1,0,0:0:0:0:
248,200,104261,1,0,0:0:0:0:
248,200,104479,1,8,0:0:0:0:
248,200,104696,1,0,0:0:0:0:
248,200,104914,1,0,0:0:0:0:
248,200,105131,1,0,0:0:0:0:
248,200,105348,1,8,0:0:0:0:
248,200,105566,1,0,0:0:0:0:
248,200,105783,1,0,0:0:0:0:
248,200,106001,1,0,0:0:0:0:
248,200,106218,1,8,0:0:0:0:
248,200,106435,1,0,0:0:0:0:
248,200,106653,1,0,0:0:0:0:
248,200,106870,1,0,0:0:0:0:
248,200,107087,1,8,0:0:0:0:
248,200,107305,1,0,0:0:0:0:
248,200,107522,1,0,0:0:0:0:
248,200,107740,1,0,0:0:0:0:
256,216,107957,1,8,0:0:0:0:
256,216,108174,1,0,0:0:0:0:
248,200,108392,1,0,0:0:0:0:
248,200,108609,1,0,0:0:0:0:
248,200,108682,1,0,0:0:0:0:
248,200,108754,1,0,0:0:0:0:
248,200,108827,1,8,0:0:0:0:
248,200,109044,1,0,0:0:0:0:
248,200,109261,1,0,0:0:0:0:
248,200,109479,1,0,0:0:0:0:
256,216,109696,1,8,0:0:0:0:
256,216,109914,1,0,0:0:0:0:
248,200,110131,1,0,0:0:0:0:
248,200,110566,1,8,0:0:0:0:
248,200,110783,1,0,0:0:0:0:
248,200,111001,1,0,0:0:0:0:
248,200,111218,1,0,0:0:0:0:
248,200,111435,1,8,0:0:0:0:
256,216,111653,1,0,0:0:0:0:
256,216,111870,1,0,0:0:0:0:
248,200,112087,1,0,0:0:0:0:
248,200,112305,1,8,0:0:0:0:
248,200,112522,1,0,0:0:0:0:
248,200,112740,1,0,0:0:0:0:
248,200,112957,1,0,0:0:0:0:
248,200,113174,1,8,0:0:0:0:
248,200,113392,1,0,0:0:0:0:
248,200,113609,1,0,0:0:0:0:
248,200,113827,1,0,0:0:0:0:
248,200,114044,1,8,0:0:0:0:
248,200,114261,1,0,0:0:0:0:
248,200,114370,1,0,0:0:0:0:
248,200,114479,1,0,0:0:0:0:
248,200,114696,1,0,0:0:0:0:
256,216,114914,1,8,0:0:0:0:
256,216,115131,1,0,0:0:0:0:
248,200,115348,1,0,0:0:0:0:
248,200,115566,1,0,0:0:0:0:
248,200,115638,1,0,0:0:0:0:
248,200,115711,1,0,0:0:0:0:
248,200,115783,1,8,0:0:0:0:
248,200,116001,1,0,0:0:0:0:
248,200,116218,1,0,0:0:0:0:
248,200,116435,1,0,0:0:0:0:
256,216,116653,1,8,0:0:0:0:
256,216,116870,1,0,0:0:0:0:
248,200,117087,1,0,0:0:0:0:
248,200,117305,1,0,0:0:0:0:
248,200,117377,1,0,0:0:0:0:
248,200,117450,1,0,0:0:0:0:
248,200,117522,1,8,0:0:0:0:
248,200,117957,1,0,0:0:0:0:
248,200,118174,1,0,0:0:0:0:
256,216,118392,1,8,0:0:0:0:
248,200,118827,1,0,0:0:0:0:
248,200,119044,1,0,0:0:0:0:
256,216,119261,1,8,0:0:0:0:
248,200,119696,1,8,0:0:0:0:
248,200,119914,1,0,0:0:0:0:
256,216,120131,1,8,0:0:0:0:
248,200,120566,1,8,0:0:0:0:
248,200,120783,1,0,0:0:0:0:
256,216,121001,1,8,0:0:0:0:
248,200,121435,1,0,0:0:0:0:
248,200,121653,1,0,0:0:0:0:
256,216,121870,1,8,0:0:0:0:
256,216,122087,1,0,0:0:0:0:
248,200,122305,1,0,0:0:0:0:
248,200,122522,1,0,0:0:0:0:
248,200,122595,1,0,0:0:0:0:
248,200,122667,1,0,0:0:0:0:
248,200,122740,1,8,0:0:0:0:
248,200,122957,1,0,0:0:0:0:
248,200,123174,1,0,0:0:0:0:
248,200,123392,1,0,0:0:0:0:
256,216,123609,1,8,0:0:0:0:
256,216,123827,1,0,0:0:0:0:
248,200,124044,1,0,0:0:0:0:
248,200,124479,1,8,0:0:0:0:
248,200,124696,1,0,0:0:0:0:
248,200,124805,1,0,0:0:0:0:
248,200,124914,1,0,0:0:0:0:
256,216,125131,1,0,0:0:0:0:
256,216,125348,1,8,0:0:0:0:
248,200,125566,1,0,0:0:0:0:
248,200,125783,1,0,0:0:0:0:
248,200,126001,1,0,0:0:0:0:
248,200,126218,1,8,0:0:0:0:
248,200,126435,1,0,0:0:0:0:
256,216,126653,1,12,0:0:0:0:
256,216,126943,1,12,0:0:0:0:
248,200,127232,1,12,0:0:0:0:
248,200,127522,1,8,0:0:0:0:
248,200,127667,1,8,0:0:0:0:
248,200,127812,1,8,0:0:0:0:
248,200,127957,1,8,0:0:0:0:
248,200,128102,1,8,0:0:0:0:
256,216,128247,1,8,0:0:0:0:
256,216,128392,1,4,0:0:0:0:
248,200,128609,1,0,0:0:0:0:
248,200,128718,1,0,0:0:0:0:
248,200,128827,1,8,0:0:0:0:
248,200,129044,1,0,0:0:0:0:
248,200,129153,1,0,0:0:0:0:
248,200,129261,1,0,0:0:0:0:
248,200,129479,1,0,0:0:0:0:
248,200,129587,1,0,0:0:0:0:
248,200,129696,1,8,0:0:0:0:
248,200,129914,1,0,0:0:0:0:
248,200,130022,1,0,0:0:0:0:
248,200,130131,1,0,0:0:0:0:
248,200,130348,1,0,0:0:0:0:
248,200,130457,1,0,0:0:0:0:
248,200,130566,1,8,0:0:0:0:
248,200,130783,1,0,0:0:0:0:
248,200,130892,1,0,0:0:0:0:
248,200,131001,1,0,0:0:0:0:
248,200,131109,1,0,0:0:0:0:
248,200,131218,1,8,0:0:0:0:
248,200,131327,1,0,0:0:0:0:
248,200,131435,1,8,0:0:0:0:
248,200,131653,1,0,0:0:0:0:
248,200,131870,1,8,0:0:0:0:
248,200,131979,1,0,0:0:0:0:
248,200,132087,1,0,0:0:0:0:
248,200,132196,1,0,0:0:0:0:
248,200,132305,1,8,0:0:0:0:
248,200,132522,1,8,0:0:0:0:
248,200,132631,1,0,0:0:0:0:
248,200,132740,1,0,0:0:0:0:
248,200,132848,1,0,0:0:0:0:
248,200,132957,1,8,0:0:0:0:
248,200,133066,1,0,0:0:0:0:
248,200,133174,1,8,0:0:0:0:
248,200,133392,1,0,0:0:0:0:
248,200,133501,1,8,0:0:0:0:
248,200,133609,1,0,0:0:0:0:
248,200,133827,1,8,0:0:0:0:
248,200,133935,1,0,0:0:0:0:
248,200,134044,1,8,0:0:0:0:
248,200,134261,1,0,0:0:0:0:
248,200,134370,1,8,0:0:0:0:
248,200,134479,1,0,0:0:0:0:
248,200,134587,1,0,0:0:0:0:
248,200,134696,1,8,0:0:0:0:
248,200,134805,1,0,0:0:0:0:
248,200,134914,1,8,0:0:0:0:
248,200,135131,1,0,0:0:0:0:
248,200,135240,1,0,0:0:0:0:
248,200,135348,1,8,0:0:0:0:
248,200,135566,1,8,0:0:0:0:
248,200,135674,1,0,0:0:0:0:
248,200,135783,1,8,0:0:0:0:
248,200,136001,1,8,0:0:0:0:
248,200,136109,1,8,0:0:0:0:
248,200,136218,1,0,0:0:0:0:
248,200,136327,1,8,0:0:0:0:
248,200,136544,1,0,0:0:0:0:
248,200,136653,1,8,0:0:0:0:
248,200,136870,1,0,0:0:0:0:
248,200,136979,1,0,0:0:0:0:
248,200,137087,1,8,0:0:0:0:
248,200,137305,1,8,0:0:0:0:
248,200,137414,1,0,0:0:0:0:
248,200,137522,1,8,0:0:0:0:
248,200,137740,1,8,0:0:0:0:
248,200,137848,1,8,0:0:0:0:
248,200,137957,1,0,0:0:0:0:
248,200,138066,1,8,0:0:0:0:
248,200,138174,1,8,0:0:0:0:
248,200,138283,1,0,0:0:0:0:
248,200,138392,1,8,0:0:0:0:
248,200,138609,1,0,0:0:0:0:
248,200,138718,1,0,0:0:0:0:
248,200,138827,1,8,0:0:0:0:
248,200,139044,1,0,0:0:0:0:
248,200,139153,1,8,0:0:0:0:
248,200,139261,1,0,0:0:0:0:
248,200,139479,1,8,0:0:0:0:
248,200,139587,1,0,0:0:0:0:
248,200,139696,1,8,0:0:0:0:
248,200,139805,1,8,0:0:0:0:
248,200,139914,1,0,0:0:0:0:
248,200,140022,1,8,0:0:0:0:
248,200,140131,1,8,0:0:0:0:
248,200,140348,1,8,0:0:0:0:
248,200,140457,1,0,0:0:0:0:
248,200,140566,1,8,0:0:0:0:
248,200,140783,1,0,0:0:0:0:
248,200,140892,1,8,0:0:0:0:
248,200,141001,1,0,0:0:0:0:
248,200,141218,1,8,0:0:0:0:
248,200,141327,1,0,0:0:0:0:
248,200,141435,1,8,0:0:0:0:
248,200,141544,1,8,0:0:0:0:
248,200,141653,1,8,0:0:0:0:
248,200,141761,1,0,0:0:0:0:
248,200,141870,1,8,0:0:0:0:
248,200,142087,1,8,0:0:0:0:
248,200,142305,1,0,0:0:0:0:
248,200,142414,1,0,0:0:0:0:
248,200,142522,1,0,0:0:0:0:
248,200,142740,1,8,0:0:0:0:
248,200,142957,1,0,0:0:0:0:
248,200,143066,1,0,0:0:0:0:
248,200,143283,1,8,0:0:0:0:
248,200,143392,1,0,0:0:0:0:
248,200,143501,1,0,0:0:0:0:
248,200,143609,1,8,0:0:0:0:
248,200,143827,1,0,0:0:0:0:
248,200,143935,1,0,0:0:0:0:
248,200,144153,1,8,0:0:0:0:
248,200,144261,1,0,0:0:0:0:
248,200,144370,1,0,0:0:0:0:
248,200,144479,1,8,0:0:0:0:
248,200,144696,1,0,0:0:0:0:
248,200,144805,1,0,0:0:0:0:
248,200,145022,1,8,0:0:0:0:
248,200,145131,1,0,0:0:0:0:
248,200,145240,1,0,0:0:0:0:
248,200,145348,1,8,0:0:0:0:
248,200,145566,1,0,0:0:0:0:
248,200,145674,1,0,0:0:0:0:
248,200,145783,1,8,0:0:0:0:
248,200,146001,1,8,0:0:0:0:
248,200,146109,1,0,0:0:0:0:
248,200,146218,1,8,0:0:0:0:
248,200,146435,1,0,0:0:0:0:
248,200,146544,1,0,0:0:0:0:
248,200,146761,1,8,0:0:0:0:
248,200,146870,1,8,0:0:0:0:
248,200,146979,1,0,0:0:0:0:
248,200,147087,1,8,0:0:0:0:
248,200,147305,1,0,0:0:0:0:
248,200,147414,1,0,0:0:0:0:
248,200,147631,1,8,0:0:0:0:
248,200,147740,1,8,0:0:0:0:
248,200,147848,1,0,0:0:0:0:
248,200,147957,1,8,0:0:0:0:
248,200,148174,1,0,0:0:0:0:
248,200,148283,1,0,0:0:0:0:
248,200,148501,1,8,0:0:0:0:
248,200,148609,1,8,0:0:0:0:
248,200,148718,1,0,0:0:0:0:
248,200,148827,1,8,0:0:0:0:
248,200,149044,1,0,0:0:0:0:
248,200,149153,1,8,0:0:0:0:
248,200,149261,1,8,0:0:0:0:
248,200,149479,1,0,0:0:0:0:
248,200,149587,1,0,0:0:0:0:
248,200,149696,1,8,0:0:0:0:
248,200,149914,1,0,0:0:0:0:
248,200,150022,1,8,0:0:0:0:
248,200,150240,1,8,0:0:0:0:
248,200,150348,1,0,0:0:0:0:
248,200,150457,1,0,0:0:0:0:
248,200,150566,1,8,0:0:0:0:
248,200,150783,1,0,0:0:0:0:
248,200,150892,1,8,0:0:0:0:
248,200,151109,1,8,0:0:0:0:
248,200,151218,1,0,0:0:0:0:
248,200,151327,1,0,0:0:0:0:
248,200,151435,1,8,0:0:0:0:
248,200,151653,1,0,0:0:0:0:
248,200,151761,1,8,0:0:0:0:
248,200,151979,1,8,0:0:0:0:
248,200,152087,1,0,0:0:0:0:
248,200,152196,1,0,0:0:0:0:
248,200,152305,1,8,0:0:0:0:
248,200,152522,1,0,0:0:0:0:
248,200,152631,1,8,0:0:0:0:
248,200,152740,1,8,0:0:0:0:
248,200,152957,1,8,0:0:0:0:
248,200,153066,1,0,0:0:0:0:
248,200,153174,1,8,0:0:0:0:
248,200,153392,1,0,0:0:0:0:
248,200,153501,1,8,0:0:0:0:
248,200,153718,1,8,0:0:0:0:
248,200,153827,1,8,0:0:0:0:
248,200,153935,1,0,0:0:0:0:
248,200,154044,1,8,0:0:0:0:
248,200,154261,1,0,0:0:0:0:
248,200,154370,1,8,0:0:0:0:
248,200,154587,1,8,0:0:0:0:
248,200,154696,1,8,0:0:0:0:
248,200,154805,1,0,0:0:0:0:
248,200,154914,1,8,0:0:0:0:
248,200,155131,1,0,0:0:0:0:
248,200,155240,1,8,0:0:0:0:
248,200,155348,1,0,0:0:0:0:
248,200,155493,1,0,0:0:0:0:
248,200,155638,1,0,0:0:0:0:
248,200,155783,1,8,0:0:0:0:
248,200,155928,1,8,0:0:0:0:
248,200,156073,1,8,0:0:0:0:
248,200,156218,1,4,0:0:0:0:
248,200,156435,1,0,0:0:0:0:
248,200,156544,1,0,0:0:0:0:
248,200,156653,1,8,0:0:0:0:
248,200,156870,1,0,0:0:0:0:
248,200,156979,1,0,0:0:0:0:
248,200,157196,1,8,0:0:0:0:
248,200,157305,1,0,0:0:0:0:
248,200,157414,1,0,0:0:0:0:
248,200,157522,1,8,0:0:0:0:
248,200,157740,1,0,0:0:0:0:
248,200,157848,1,0,0:0:0:0:
248,200,157957,1,0,0:0:0:0:
248,200,158174,1,0,0:0:0:0:
248,200,158283,1,0,0:0:0:0:
248,200,158392,1,8,0:0:0:0:
248,200,158609,1,0,0:0:0:0:
248,200,158718,1,0,0:0:0:0:
248,200,158935,1,8,0:0:0:0:
248,200,159044,1,0,0:0:0:0:
248,200,159153,1,0,0:0:0:0:
248,200,159261,1,8,0:0:0:0:
248,200,159479,1,0,0:0:0:0:
248,200,159587,1,8,0:0:0:0:
248,200,159696,1,0,0:0:0:0:
248,200,159914,1,0,0:0:0:0:
248,200,160022,1,0,0:0:0:0:
248,200,160131,1,8,0:0:0:0:
248,200,160348,1,0,0:0:0:0:
248,200,160457,1,0,0:0:0:0:
248,200,160674,1,8,0:0:0:0:
248,200,160783,1,0,0:0:0:0:
248,200,160892,1,0,0:0:0:0:
248,200,161001,1,8,0:0:0:0:
248,200,161218,1,0,0:0:0:0:
248,200,161327,1,8,0:0:0:0:
248,200,161435,1,0,0:0:0:0:
248,200,161653,1,8,0:0:0:0:
248,200,161761,1,0,0:0:0:0:
248,200,161870,1,8,0:0:0:0:
248,200,162087,1,0,0:0:0:0:
248,200,162196,1,0,0:0:0:0:
248,200,162414,1,8,0:0:0:0:
248,200,162522,1,0,0:0:0:0:
248,200,162631,1,0,0:0:0:0:
248,200,162740,1,8,0:0:0:0:
248,200,162957,1,0,0:0:0:0:
248,200,163066,1,0,0:0:0:0:
248,200,163174,1,0,0:0:0:0:
248,200,163392,1,0,0:0:0:0:
248,200,163501,1,0,0:0:0:0:
248,200,163609,1,8,0:0:0:0:
248,200,163827,1,0,0:0:0:0:
248,200,163935,1,0,0:0:0:0:
248,200,164044,1,0,0:0:0:0:
248,200,164153,1,8,0:0:0:0:
248,200,164261,1,0,0:0:0:0:
248,200,164370,1,0,0:0:0:0:
248,200,164479,1,8,0:0:0:0:
248,200,164696,1,0,0:0:0:0:
248,200,164805,1,8,0:0:0:0:
248,200,164914,1,0,0:0:0:0:
248,200,165131,1,0,0:0:0:0:
248,200,165240,1,0,0:0:0:0:
248,200,165348,1,8,0:0:0:0:
248,200,165566,1,0,0:0:0:0:
248,200,165674,1,0,0:0:0:0:
248,200,165783,1,0,0:0:0:0:
248,200,165892,1,8,0:0:0:0:
248,200,166001,1,0,0:0:0:0:
248,200,166109,1,0,0:0:0:0:
248,200,166218,1,8,0:0:0:0:
248,200,166435,1,0,0:0:0:0:
248,200,166544,1,8,0:0:0:0:
248,200,166653,1,0,0:0:0:0:
248,200,166870,1,8,0:0:0:0:
248,200,166979,1,0,0:0:0:0:
248,200,167087,1,8,0:0:0:0:
248,200,167305,1,0,0:0:0:0:
248,200,167414,1,0,0:0:0:0:
248,200,167522,1,0,0:0:0:0:
248,200,167631,1,8,0:0:0:0:
248,200,167740,1,0,0:0:0:0:
248,200,167848,1,0,0:0:0:0:
248,200,167957,1,8,0:0:0:0:
248,200,168174,1,0,0:0:0:0:
248,200,168283,1,8,0:0:0:0:
248,200,168392,1,0,0:0:0:0:
248,200,168609,1,8,0:0:0:0:
248,200,168718,1,0,0:0:0:0:
248,200,168827,1,8,0:0:0:0:
248,200,169044,1,0,0:0:0:0:
248,200,169153,1,0,0:0:0:0:
248,200,169261,1,0,0:0:0:0:
248,200,169370,1,8,0:0:0:0:
248,200,169479,1,8,0:0:0:0:
248,200,169587,1,0,0:0:0:0:
248,200,169696,1,8,0:0:0:0:
248,200,169914,1,8,0:0:0:0:
248,200,170022,1,8,0:0:0:0:
248,200,170131,1,0,0:0:0:0:
248,200,170348,1,0,0:0:0:0:
248,200,170457,1,0,0:0:0:0:
248,200,170566,1,8,0:0:0:0:
248,200,170783,1,0,0:0:0:0:
248,200,170892,1,0,0:0:0:0:
248,200,171109,1,8,0:0:0:0:
248,200,171218,1,0,0:0:0:0:
248,200,171327,1,0,0:0:0:0:
248,200,171435,1,8,0:0:0:0:
248,200,171653,1,0,0:0:0:0:
248,200,171761,1,0,0:0:0:0:
248,200,171870,1,0,0:0:0:0:
248,200,172087,1,8,0:0:0:0:
248,200,172196,1,0,0:0:0:0:
248,200,172305,1,8,0:0:0:0:
248,200,172522,1,0,0:0:0:0:
248,200,172631,1,0,0:0:0:0:
248,200,172848,1,8,0:0:0:0:
248,200,172957,1,0,0:0:0:0:
248,200,173066,1,0,0:0:0:0:
248,200,173174,1,8,0:0:0:0:
248,200,173392,1,8,0:0:0:0:
248,200,173501,1,8,0:0:0:0:
248,200,173609,1,0,0:0:0:0:
248,200,173827,1,0,0:0:0:0:
248,200,173935,1,0,0:0:0:0:
248,200,174044,1,8,0:0:0:0:
248,200,174261,1,0,0:0:0:0:
248,200,174370,1,0,0:0:0:0:
248,200,174587,1,8,0:0:0:0:
248,200,174696,1,0,0:0:0:0:
248,200,174805,1,0,0:0:0:0:
248,200,174914,1,8,0:0:0:0:
248,200,175131,1,8,0:0:0:0:
248,200,175240,1,8,0:0:0:0:
248,200,175348,1,0,0:0:0:0:
248,200,175566,1,0,0:0:0:0:
248,200,175674,1,0,0:0:0:0:
248,200,175783,1,8,0:0:0:0:
248,200,176001,1,0,0:0:0:0:
248,200,176109,1,0,0:0:0:0:
248,200,176327,1,8,0:0:0:0:
248,200,176435,1,0,0:0:0:0:
248,200,176544,1,0,0:0:0:0:
248,200,176653,1,8,0:0:0:0:
248,200,176870,1,8,0:0:0:0:
248,200,176979,1,8,0:0:0:0:
248,200,177087,1,0,0:0:0:0:
248,200,177305,1,0,0:0:0:0:
248,200,177414,1,0,0:0:0:0:
248,200,177522,1,8,0:0:0:0:
248,200,177740,1,0,0:0:0:0:
248,200,177848,1,0,0:0:0:0:
248,200,178066,1,8,0:0:0:0:
248,200,178174,1,8,0:0:0:0:
248,200,178283,1,0,0:0:0:0:
248,200,178392,1,8,0:0:0:0:
248,200,178609,1,8,0:0:0:0:
248,200,178718,1,8,0:0:0:0:
248,200,178827,1,0,0:0:0:0:
248,200,179044,1,8,0:0:0:0:
248,200,179153,1,0,0:0:0:0:
248,200,179261,1,8,0:0:0:0:
248,200,179479,1,0,0:0:0:0:
248,200,179587,1,0,0:0:0:0:
248,200,179805,1,8,0:0:0:0:
248,200,179914,1,8,0:0:0:0:
248,200,180022,1,0,0:0:0:0:
248,200,180131,1,8,0:0:0:0:
248,200,180348,1,8,0:0:0:0:
248,200,180457,1,0,0:0:0:0:
248,200,180566,1,0,0:0:0:0:
248,200,180783,1,0,0:0:0:0:
248,200,180892,1,0,0:0:0:0:
248,200,181001,1,8,0:0:0:0:
248,200,181218,1,0,0:0:0:0:
248,200,181327,1,0,0:0:0:0:
248,200,181544,1,8,0:0:0:0:
248,200,181653,1,8,0:0:0:0:
248,200,181761,1,0,0:0:0:0:
248,200,181870,1,8,0:0:0:0:
248,200,182087,1,8,0:0:0:0:
248,200,182196,1,8,0:0:0:0:
248,200,182305,1,0,0:0:0:0:
248,200,182414,1,8,0:0:0:0:
248,200,182522,1,0,0:0:0:0:
248,200,182631,1,0,0:0:0:0:
248,200,182740,1,8,0:0:0:0:
248,200,182957,1,0,0:0:0:0:
248,200,183066,1,8,0:0:0:0:
248,200,183174,1,0,0:0:0:0:
248,200,183283,1,8,0:0:0:0:
248,200,183392,1,0,0:0:0:0:
248,200,183501,1,0,0:0:0:0:
248,200,183609,1,8,0:0:0:0:
248,200,183718,1,0,0:0:0:0:
248,200,183827,1,0,0:0:0:0:
248,200,183899,1,0,0:0:0:0:
248,200,183972,1,0,0:0:0:0:
248,200,184044,1,0,0:0:0:0:
248,200,185348,1,8,0:0:0:0:
248,200,185783,1,0,0:0:0:0:
248,200,186653,1,0,0:0:0:0:
248,200,187087,1,8,0:0:0:0:
248,200,187305,1,0,0:0:0:0:
248,200,187522,1,0,0:0:0:0:
248,200,188392,1,0,0:0:0:0:
248,200,188827,1,8,0:0:0:0:
248,200,189261,1,0,0:0:0:0:
248,200,190131,1,0,0:0:0:0:
248,200,190566,1,8,0:0:0:0:
248,200,190783,1,8,0:0:0:0:
248,200,191001,1,0,0:0:0:0:
248,200,191435,1,8,0:0:0:0:
248,200,191870,1,0,0:0:0:0:
248,200,192305,1,8,0:0:0:0:
248,200,192740,1,0,0:0:0:0:
248,200,193174,1,8,0:0:0:0:
248,200,193609,1,0,0:0:0:0:
248,200,194044,1,8,0:0:0:0:
248,200,194261,1,0,0:0:0:0:
248,200,194479,1,0,0:0:0:0:
248,200,194914,1,8,0:0:0:0:
248,200,195348,1,0,0:0:0:0:
248,200,195783,1,8,0:0:0:0:
248,200,196001,1,8,0:0:0:0:
248,200,196218,1,0,0:0:0:0:
248,200,196653,1,8,0:0:0:0:
248,200,197087,1,0,0:0:0:0:
248,200,197522,1,8,0:0:0:0:
248,200,197957,1,4,0:0:0:0:
248,200,198392,1,8,0:0:0:0:
248,200,198827,1,0,0:0:0:0:
248,200,199261,1,8,0:0:0:0:
248,200,199696,1,0,0:0:0:0:
248,200,200131,1,8,0:0:0:0:
248,200,200566,1,0,0:0:0:0:
248,200,201001,1,8,0:0:0:0:
248,200,201218,1,0,0:0:0:0:
248,200,201435,1,0,0:0:0:0:
248,200,201870,1,8,0:0:0:0:
248,200,202305,1,0,0:0:0:0:
248,200,202740,1,8,0:0:0:0:
248,200,203174,1,0,0:0:0:0:
248,200,203609,1,8,0:0:0:0:
248,200,204044,1,0,0:0:0:0:
248,200,204479,1,8,0:0:0:0:
248,200,204696,1,8,0:0:0:0:
248,200,204914,1,0,0:0:0:0:
248,200,205783,1,0,0:0:0:0:
248,200,206218,1,8,0:0:0:0:
248,200,206653,1,0,0:0:0:0:
248,200,207522,1,0,0:0:0:0:
248,200,207957,1,8,0:0:0:0:
248,200,208174,1,0,0:0:0:0:
248,200,208392,1,0,0:0:0:0:
248,200,208827,1,8,0:0:0:0:
248,200,209261,1,0,0:0:0:0:
248,200,209696,1,8,0:0:0:0:
248,200,209914,1,8,0:0:0:0:
248,200,210131,1,0,0:0:0:0:
248,200,210566,1,8,0:0:0:0:
248,200,211001,1,0,0:0:0:0:
248,200,211435,1,8,0:0:0:0:
239,248,211870,1,4,0:0:0:0:
256,192,215348,8,0,218392,0:0:0:0:
227,208,218827,5,4,0:0:0:0:
227,208,219044,1,0,0:0:0:0:
227,208,219153,1,0,0:0:0:0:
227,208,219261,1,8,0:0:0:0:
227,208,219479,1,8,0:0:0:0:
227,208,219696,1,0,0:0:0:0:
227,208,219914,1,8,0:0:0:0:
227,208,220022,1,0,0:0:0:0:
227,208,220131,1,8,0:0:0:0:
227,208,220348,1,8,0:0:0:0:
227,208,220566,1,0,0:0:0:0:
227,208,220783,1,8,0:0:0:0:
227,208,220892,1,0,0:0:0:0:
227,208,221001,1,8,0:0:0:0:
203,195,221218,1,8,0:0:0:0:
227,208,221327,1,0,0:0:0:0:
227,208,221435,1,8,0:0:0:0:
227,208,221544,1,0,0:0:0:0:
227,208,221653,1,0,0:0:0:0:
227,208,221761,1,0,0:0:0:0:
227,208,221870,1,8,0:0:0:0:
227,208,222087,1,8,0:0:0:0:
227,208,222305,1,0,0:0:0:0:
227,208,222522,1,8,0:0:0:0:
203,195,222631,1,0,0:0:0:0:
203,195,222740,1,8,0:0:0:0:
227,208,222957,1,8,0:0:0:0:
227,208,223066,1,0,0:0:0:0:
227,208,223174,1,8,0:0:0:0:
227,208,223392,1,8,0:0:0:0:
227,208,223609,1,8,0:0:0:0:
227,208,223718,1,0,0:0:0:0:
227,208,223827,1,8,0:0:0:0:
227,208,223935,1,0,0:0:0:0:
227,208,224044,1,8,0:0:0:0:
227,208,224153,1,0,0:0:0:0:
227,208,224261,1,8,0:0:0:0:
208,200,224370,1,0,0:0:0:0:
227,208,224479,1,8,0:0:0:0:
227,208,224696,1,8,0:0:0:0:
227,208,224914,1,8,0:0:0:0:
227,208,225131,1,0,0:0:0:0:
227,208,225240,1,0,0:0:0:0:
227,208,225348,1,8,0:0:0:0:
227,208,225566,1,0,0:0:0:0:
227,208,225783,1,0,0:0:0:0:
227,208,225892,1,0,0:0:0:0:
227,208,226001,1,0,0:0:0:0:
227,208,226109,1,0,0:0:0:0:
227,208,226218,1,8,0:0:0:0:
227,208,226435,1,8,0:0:0:0:
227,208,226653,1,0,0:0:0:0:
227,208,226761,1,0,0:0:0:0:
227,208,226870,1,0,0:0:0:0:
227,208,226979,1,0,0:0:0:0:
227,208,227087,1,8,0:0:0:0:
227,208,227305,1,8,0:0:0:0:
227,208,227522,1,0,0:0:0:0:
227,208,227740,1,8,0:0:0:0:
227,208,227848,1,0,0:0:0:0:
227,208,227957,1,8,0:0:0:0:
203,195,228174,1,8,0:0:0:0:
227,208,228283,1,0,0:0:0:0:
227,208,228392,1,8,0:0:0:0:
227,208,228501,1,0,0:0:0:0:
227,208,228609,1,0,0:0:0:0:
227,208,228718,1,0,0:0:0:0:
227,208,228827,1,8,0:0:0:0:
227,208,229044,1,8,0:0:0:0:
227,208,229153,1,0,0:0:0:0:
227,208,229261,1,0,0:0:0:0:
227,208,229479,1,8,0:0:0:0:
203,195,229587,1,0,0:0:0:0:
203,195,229696,1,8,0:0:0:0:
227,208,229914,1,8,0:0:0:0:
227,208,230022,1,0,0:0:0:0:
227,208,230131,1,8,0:0:0:0:
227,208,230348,1,8,0:0:0:0:
227,208,230566,1,8,0:0:0:0:
227,208,230674,1,0,0:0:0:0:
227,208,230783,1,8,0:0:0:0:
227,208,230892,1,0,0:0:0:0:
227,208,231001,1,8,0:0:0:0:
227,208,231109,1,0,0:0:0:0:
227,208,231218,1,8,0:0:0:0:
227,208,231435,1,8,0:0:0:0:
227,208,231653,1,8,0:0:0:0:
227,208,231870,1,8,0:0:0:0:
227,208,232087,1,0,0:0:0:0:
227,208,232196,1,0,0:0:0:0:
227,208,232305,1,8,0:0:0:0:
227,208,232522,1,0,0:0:0:0:
227,208,232740,1,4,0:0:0:0:
227,208,232957,1,0,0:0:0:0:
227,208,233066,1,0,0:0:0:0:
227,208,233174,1,8,0:0:0:0:
227,208,233392,1,8,0:0:0:0:
227,208,233609,1,0,0:0:0:0:
227,208,233827,1,8,0:0:0:0:
227,208,233935,1,0,0:0:0:0:
227,208,234044,1,8,0:0:0:0:
227,208,234261,1,8,0:0:0:0:
227,208,234479,1,0,0:0:0:0:
227,208,234696,1,8,0:0:0:0:
227,208,234805,1,0,0:0:0:0:
227,208,234914,1,8,0:0:0:0:
203,195,235131,1,8,0:0:0:0:
227,208,235240,1,0,0:0:0:0:
227,208,235348,1,8,0:0:0:0:
227,208,235457,1,0,0:0:0:0:
227,208,235566,1,0,0:0:0:0:
227,208,235674,1,0,0:0:0:0:
227,208,235783,1,8,0:0:0:0:
227,208,236001,1,8,0:0:0:0:
227,208,236218,1,0,0:0:0:0:
227,208,236435,1,8,0:0:0:0:
203,195,236544,1,0,0:0:0:0:
203,195,236653,1,8,0:0:0:0:
227,208,236870,1,8,0:0:0:0:
227,208,236979,1,0,0:0:0:0:
227,208,237087,1,8,0:0:0:0:
227,208,237305,1,8,0:0:0:0:
227,208,237522,1,8,0:0:0:0:
227,208,237631,1,0,0:0:0:0:
227,208,237740,1,8,0:0:0:0:
227,208,237848,1,0,0:0:0:0:
227,208,237957,1,8,0:0:0:0:
227,208,238066,1,0,0:0:0:0:
227,208,238174,1,8,0:0:0:0:
227,208,238392,1,8,0:0:0:0:
227,208,238609,1,8,0:0:0:0:
227,208,238827,1,8,0:0:0:0:
227,208,239044,1,0,0:0:0:0:
227,208,239153,1,0,0:0:0:0:
227,208,239261,1,8,0:0:0:0:
227,208,239479,1,0,0:0:0:0:
227,208,239696,1,0,0:0:0:0:
227,208,239805,1,0,0:0:0:0:
227,208,239914,1,0,0:0:0:0:
227,208,240022,1,0,0:0:0:0:
227,208,240131,1,8,0:0:0:0:
227,208,240348,1,8,0:0:0:0:
227,208,240566,1,0,0:0:0:0:
227,208,240674,1,0,0:0:0:0:
227,208,240783,1,0,0:0:0:0:
227,208,240892,1,0,0:0:0:0:
227,208,241001,1,8,0:0:0:0:
227,208,241218,1,8,0:0:0:0:
227,208,241435,1,0,0:0:0:0:
227,208,241653,1,8,0:0:0:0:
227,208,241761,1,0,0:0:0:0:
227,208,241870,1,8,0:0:0:0:
203,195,242087,1,8,0:0:0:0:
227,208,242196,1,0,0:0:0:0:
227,208,242305,1,8,0:0:0:0:
227,208,242414,1,0,0:0:0:0:
227,208,242522,1,0,0:0:0:0:
227,208,242631,1,0,0:0:0:0:
227,208,242740,1,8,0:0:0:0:
227,208,242957,1,8,0:0:0:0:
227,208,243066,1,0,0:0:0:0:
227,208,243174,1,0,0:0:0:0:
227,208,243392,1,8,0:0:0:0:
203,195,243501,1,0,0:0:0:0:
203,195,243609,1,8,0:0:0:0:
227,208,243827,1,8,0:0:0:0:
227,208,243935,1,0,0:0:0:0:
227,208,244044,1,8,0:0:0:0:
227,208,244261,1,8,0:0:0:0:
227,208,244479,1,8,0:0:0:0:
227,208,244587,1,0,0:0:0:0:
227,208,244696,1,8,0:0:0:0:
227,208,244805,1,0,0:0:0:0:
227,208,244914,1,8,0:0:0:0:
227,208,245022,1,0,0:0:0:0:
227,208,245131,1,8,0:0:0:0:
227,208,245348,1,8,0:0:0:0:
227,208,245566,1,8,0:0:0:0:
227,208,245783,1,8,0:0:0:0:
227,208,246001,1,0,0:0:0:0:
227,208,246109,1,0,0:0:0:0:
227,208,246218,1,8,0:0:0:0:
227,208,246435,1,0,0:0:0:0:
227,208,246653,1,0,0:0:0:0:
227,208,246761,1,0,0:0:0:0:
227,208,246979,1,0,0:0:0:0:
227,208,247087,1,8,0:0:0:0:
227,208,247305,1,0,0:0:0:0:
227,208,247522,1,0,0:0:0:0:
227,208,247631,1,0,0:0:0:0:
227,208,247848,1,0,0:0:0:0:
227,208,247957,1,8,0:0:0:0:
227,208,248174,1,0,0:0:0:0:
227,208,248392,1,8,0:0:0:0:
227,208,248501,1,0,0:0:0:0:
227,208,248718,1,0,0:0:0:0:
203,195,248827,1,8,0:0:0:0:
227,208,248935,1,0,0:0:0:0:
227,208,249153,1,0,0:0:0:0:
227,208,249261,1,8,0:0:0:0:
227,208,249370,1,0,0:0:0:0:
227,208,249479,1,8,0:0:0:0:
227,208,249587,1,0,0:0:0:0:
227,208,249696,1,8,0:0:0:0:
227,208,249914,1,0,0:0:0:0:
203,195,250131,1,0,0:0:0:0:
227,208,250240,1,0,0:0:0:0:
203,195,250457,1,0,0:0:0:0:
227,208,250566,1,8,0:0:0:0:
227,208,250783,1,0,0:0:0:0:
227,208,251001,1,0,0:0:0:0:
227,208,251109,1,0,0:0:0:0:
227,208,251327,1,0,0:0:0:0:
227,208,251435,1,8,0:0:0:0:
227,208,251544,1,0,0:0:0:0:
227,208,251653,1,8,0:0:0:0:
227,208,251761,1,0,0:0:0:0:
227,208,251870,1,8,0:0:0:0:
227,208,252087,1,8,0:0:0:0:
232,200,252196,1,0,0:0:0:0:
227,208,252305,1,8,0:0:0:0:
227,208,252522,1,8,0:0:0:0:
227,208,252740,1,8,0:0:0:0:
227,208,252957,1,0,0:0:0:0:
227,208,253066,1,0,0:0:0:0:
227,208,253174,1,8,0:0:0:0:
227,208,253392,1,0,0:0:0:0:
227,208,253609,1,8,0:0:0:0:
227,208,253718,1,0,0:0:0:0:
227,208,253935,1,0,0:0:0:0:
227,208,254044,1,8,0:0:0:0:
227,208,254261,1,0,0:0:0:0:
227,208,254479,1,8,0:0:0:0:
227,208,254587,1,0,0:0:0:0:
227,208,254805,1,0,0:0:0:0:
227,208,254914,1,8,0:0:0:0:
227,208,255131,1,0,0:0:0:0:
227,208,255348,1,8,0:0:0:0:
227,208,255457,1,0,0:0:0:0:
227,208,255674,1,0,0:0:0:0:
203,195,255783,1,8,0:0:0:0:
227,208,255892,1,0,0:0:0:0:
227,208,256109,1,0,0:0:0:0:
227,208,256218,1,8,0:0:0:0:
227,208,256327,1,0,0:0:0:0:
227,208,256435,1,8,0:0:0:0:
227,208,256544,1,0,0:0:0:0:
227,208,256653,1,8,0:0:0:0:
227,208,256870,1,0,0:0:0:0:
227,208,257087,1,8,0:0:0:0:
203,195,257196,1,0,0:0:0:0:
203,195,257414,1,0,0:0:0:0:
227,208,257522,1,8,0:0:0:0:
227,208,257740,1,0,0:0:0:0:
227,208,257957,1,8,0:0:0:0:
227,208,258066,1,0,0:0:0:0:
227,208,258283,1,0,0:0:0:0:
227,208,258392,1,8,0:0:0:0:
227,208,258501,1,0,0:0:0:0:
227,208,258609,1,8,0:0:0:0:
227,208,258718,1,0,0:0:0:0:
227,208,258827,1,8,0:0:0:0:
227,208,259044,1,8,0:0:0:0:
227,208,259153,1,0,0:0:0:0:
227,208,259261,1,8,0:0:0:0:
227,208,259479,1,8,0:0:0:0:
227,208,259696,1,8,0:0:0:0:
227,208,259805,1,0,0:0:0:0:
227,208,259914,1,8,0:0:0:0:
227,208,260022,1,0,0:0:0:0:
227,208,260131,1,8,0:0:0:0:
227,208,260348,1,8,0:0:0:0:
227,208,260566,1,12,0:0:0:0:
227,208,260783,1,0,0:0:0:0:
227,208,260892,1,0,0:0:0:0:
227,208,261001,1,8,0:0:0:0:
227,208,261218,1,8,0:0:0:0:
227,208,261327,1,0,0:0:0:0:
227,208,261435,1,8,0:0:0:0:
227,208,261544,1,0,0:0:0:0:
227,208,261653,1,0,0:0:0:0:
227,208,261761,1,0,0:0:0:0:
227,208,261870,1,8,0:0:0:0:
227,208,262087,1,8,0:0:0:0:
227,208,262305,1,8,0:0:0:0:
227,208,262522,1,0,0:0:0:0:
227,208,262740,1,0,0:0:0:0:
227,208,262957,1,0,0:0:0:0:
227,208,263066,1,8,0:0:0:0:
227,208,263174,1,0,0:0:0:0:
227,208,263392,1,0,0:0:0:0:
227,208,263501,1,0,0:0:0:0:
227,208,263609,1,8,0:0:0:0:
227,208,263827,1,0,0:0:0:0:
227,208,264044,1,0,0:0:0:0:
227,208,264261,1,8,0:0:0:0:
227,208,264370,1,0,0:0:0:0:
227,208,264479,1,8,0:0:0:0:
227,208,264696,1,8,0:0:0:0:
227,208,264805,1,0,0:0:0:0:
227,208,264914,1,8,0:0:0:0:
227,208,265131,1,0,0:0:0:0:
227,208,265348,1,0,0:0:0:0:
227,208,265566,1,8,0:0:0:0:
227,208,265783,1,0,0:0:0:0:
227,208,266001,1,8,0:0:0:0:
227,208,266218,1,8,0:0:0:0:
227,208,266435,1,0,0:0:0:0:
227,208,266653,1,0,0:0:0:0:
227,208,266870,1,8,0:0:0:0:
227,208,266943,1,0,0:0:0:0:
227,208,267015,1,0,0:0:0:0:
227,208,267087,1,8,0:0:0:0:
227,208,267305,1,0,0:0:0:0:
227,208,267522,1,4,0:0:0:0:
227,208,267740,1,8,0:0:0:0:
227,208,267848,1,0,0:0:0:0:
227,208,267957,1,8,0:0:0:0:
227,208,268174,1,8,0:0:0:0:
227,208,268283,1,0,0:0:0:0:
227,208,268392,1,8,0:0:0:0:
227,208,268609,1,8,0:0:0:0:
227,208,268718,1,0,0:0:0:0:
227,208,268827,1,8,0:0:0:0:
227,208,269044,1,8,0:0:0:0:
227,208,269261,1,8,0:0:0:0:
227,208,269479,1,0,0:0:0:0:
227,208,269696,1,0,0:0:0:0:
227,208,269914,1,0,0:0:0:0:
227,208,269986,1,8,0:0:0:0:
227,208,270059,1,8,0:0:0:0:
227,208,270131,1,0,0:0:0:0:
227,208,270348,1,8,0:0:0:0:
227,208,270457,1,0,0:0:0:0:
227,208,270566,1,8,0:0:0:0:
227,208,270783,1,0,0:0:0:0:
227,208,271001,1,4,0:0:0:0:
227,208,271218,1,8,0:0:0:0:
227,208,271327,1,0,0:0:0:0:
227,208,271435,1,8,0:0:0:0:
227,208,271544,1,0,0:0:0:0:
227,208,271653,1,0,0:0:0:0:
227,208,271870,1,4,0:0:0:0:
227,208,272087,1,8,0:0:0:0:
227,208,272196,1,0,0:0:0:0:
227,208,272305,1,8,0:0:0:0:
227,208,272414,1,0,0:0:0:0:
227,208,272522,1,8,0:0:0:0:
227,208,272740,1,4,0:0:0:0:
227,208,272957,1,0,0:0:0:0:
227,208,273174,1,4,0:0:0:0:
227,208,273392,1,0,0:0:0:0:
227,208,273609,1,0,0:0:0:0:
227,208,273718,1,0,0:0:0:0:
227,208,273827,1,0,0:0:0:0:
227,208,273935,1,0,0:0:0:0:
227,208,274044,1,0,0:0:0:0:
227,208,274116,1,0,0:0:0:0:
227,208,274189,1,0,0:0:0:0:
227,208,274261,1,0,0:0:0:0:
16,88,274914,2,4,L|504:288,4,490,4|4|4|4|4,0:0|0:0|0:0|0:0|0:0,0:0:0:0:
48,120,278392,2,0,L|504:264,2,420,0|0|0,0:0|0:0|0:0,0:0:0:0:
28,204,280131,2,0,L|464:216,2,420,0|0|0,0:0|0:0|0:0,0:0:0:0:
256,192,281870,8,0,285348,0:0:0:0:
248,200,288827,5,0,0:0:0:0:
248,200,289044,1,0,0:0:0:0:
248,200,289261,1,8,0:0:0:0:
248,200,289479,1,0,0:0:0:0:
248,200,289696,1,0,0:0:0:0:
248,200,289914,1,0,0:0:0:0:
248,200,289986,1,0,0:0:0:0:
248,200,290058,1,0,0:0:0:0:
248,200,290131,1,8,0:0:0:0:
248,200,290348,1,0,0:0:0:0:
248,200,290566,1,0,0:0:0:0:
248,200,290783,1,0,0:0:0:0:
248,200,291000,1,8,0:0:0:0:
248,200,291218,1,0,0:0:0:0:
248,200,291435,1,0,0:0:0:0:
248,200,291653,1,0,0:0:0:0:
248,200,291725,1,0,0:0:0:0:
248,200,291798,1,0,0:0:0:0:
248,200,291870,1,8,0:0:0:0:
248,200,292305,1,0,0:0:0:0:
248,200,292631,1,0,0:0:0:0:
248,200,292957,1,8,0:0:0:0:
248,200,293174,1,0,0:0:0:0:
248,200,293500,1,0,0:0:0:0:
248,200,293827,1,8,0:0:0:0:
248,200,294044,1,0,0:0:0:0:
248,200,294370,1,0,0:0:0:0:
248,200,294696,1,8,0:0:0:0:
248,200,294914,1,0,0:0:0:0:
248,200,295240,1,0,0:0:0:0:
248,200,295566,1,8,0:0:0:0:
248,200,295783,1,0,0:0:0:0:
248,200,296000,1,0,0:0:0:0:
248,200,296218,1,8,0:0:0:0:
248,200,296435,1,0,0:0:0:0:
248,200,296653,1,0,0:0:0:0:
248,200,296870,1,0,0:0:0:0:
248,200,296942,1,0,0:0:0:0:
248,200,297015,1,0,0:0:0:0:
248,200,297087,1,8,0:0:0:0:
248,200,297305,1,0,0:0:0:0:
248,200,297522,1,0,0:0:0:0:
248,200,297740,1,0,0:0:0:0:
248,200,297957,1,8,0:0:0:0:
248,200,298174,1,0,0:0:0:0:
248,200,298392,1,8,0:0:0:0:
248,200,298827,1,8,0:0:0:0:
248,200,298935,1,0,0:0:0:0:
248,200,299044,1,0,0:0:0:0:
248,200,299261,1,0,0:0:0:0:
248,200,299587,1,0,0:0:0:0:
248,200,299914,1,8,0:0:0:0:
248,200,300131,1,0,0:0:0:0:
248,200,300457,1,0,0:0:0:0:
248,200,300783,1,8,0:0:0:0:
248,200,301000,1,0,0:0:0:0:
248,200,301327,1,0,0:0:0:0:
248,200,301653,1,8,0:0:0:0:
248,200,301870,1,0,0:0:0:0:
248,200,302196,1,0,0:0:0:0:
248,200,302522,1,8,0:0:0:0:
248,200,302740,1,4,0:0:0:0:
248,200,303066,1,4,0:0:0:0:
120,200,303392,2,4,L|352:192,1,210,,,0:0:0:0:
248,200,304479,1,4,0:0:0:0:
248,200,304805,1,4,0:0:0:0:
120,200,305131,2,4,L|352:192,1,210,,,0:0:0:0:
248,200,306218,1,4,0:0:0:0:
248,200,306544,1,4,0:0:0:0:
120,200,306870,2,4,L|352:192,1,210,,,0:0:0:0:
248,200,307957,1,0,0:0:0:0:
248,200,308283,1,0,0:0:0:0:
248,200,308609,1,8,0:0:0:0:
248,200,308827,1,0,0:0:0:0:
248,200,309153,1,0,0:0:0:0:
248,200,309479,1,8,0:0:0:0:
248,200,309696,1,4,0:0:0:0:
248,200,310022,1,4,0:0:0:0:
120,200,310348,2,4,L|352:192,1,210,,,0:0:0:0:
248,200,311435,1,4,0:0:0:0:
248,200,311761,1,4,0:0:0:0:
120,200,312087,2,4,L|352:192,1,210,,,0:0:0:0:
248,200,313174,1,4,0:0:0:0:
248,200,313500,1,4,0:0:0:0:
120,200,313827,2,4,L|352:192,1,210,,,0:0:0:0:
248,200,314914,1,4,0:0:0:0:
248,200,315240,1,4,0:0:0:0:
120,200,315566,2,4,L|352:192,1,210,,,0:0:0:0:
256,192,316653,8,0,325131,0:0:0:0:
208,192,328827,5,8,0:0:0:0:
208,192,328935,1,8,0:0:0:0:
208,192,329153,1,8,0:0:0:0:
208,192,329261,1,8,0:0:0:0:
208,192,329479,1,8,0:0:0:0:
208,192,329587,1,8,0:0:0:0:
208,192,329805,1,8,0:0:0:0:
208,192,329914,1,8,0:0:0:0:
208,192,330131,1,8,0:0:0:0:
208,192,330240,1,8,0:0:0:0:
208,192,330457,1,8,0:0:0:0:
208,192,330566,1,8,0:0:0:0:
208,192,330783,1,8,0:0:0:0:
208,192,330892,1,8,0:0:0:0:
208,192,331109,1,8,0:0:0:0:
208,192,331218,1,8,0:0:0:0:
208,192,331435,1,8,0:0:0:0:
208,192,331544,1,8,0:0:0:0:
208,192,331653,1,0,0:0:0:0:
208,192,331761,1,0,0:0:0:0:
208,192,331870,1,8,0:0:0:0:
208,192,331979,1,8,0:0:0:0:
208,192,332087,1,0,0:0:0:0:
208,192,332196,1,0,0:0:0:0:
208,192,332305,1,8,0:0:0:0:
208,192,332414,1,8,0:0:0:0:
208,192,332631,1,8,0:0:0:0:
208,192,332740,1,8,0:0:0:0:
208,192,332957,1,8,0:0:0:0:
208,192,333066,1,8,0:0:0:0:
208,192,333283,1,8,0:0:0:0:
208,192,333392,1,8,0:0:0:0:
208,192,333609,1,8,0:0:0:0:
208,192,333718,1,8,0:0:0:0:
208,192,333935,1,8,0:0:0:0:
208,192,334044,1,8,0:0:0:0:
208,192,334261,1,8,0:0:0:0:
208,192,334370,1,8,0:0:0:0:
208,192,334587,1,8,0:0:0:0:
208,192,334696,1,8,0:0:0:0:
208,192,334914,1,8,0:0:0:0:
208,192,335022,1,8,0:0:0:0:
208,192,335131,1,0,0:0:0:0:
208,192,335240,1,0,0:0:0:0:
208,192,335348,1,8,0:0:0:0:
208,192,335457,1,8,0:0:0:0:
208,192,335566,1,0,0:0:0:0:
208,192,335674,1,0,0:0:0:0:
208,192,335783,1,8,0:0:0:0:
208,192,335892,1,8,0:0:0:0:
208,192,336109,1,8,0:0:0:0:
208,192,336218,1,8,0:0:0:0:
208,192,336435,1,8,0:0:0:0:
208,192,336544,1,8,0:0:0:0:
208,192,336761,1,8,0:0:0:0:
208,192,336870,1,8,0:0:0:0:
208,192,337087,1,8,0:0:0:0:
208,192,337196,1,8,0:0:0:0:
208,192,337414,1,8,0:0:0:0:
208,192,337522,1,8,0:0:0:0:
208,192,337740,1,8,0:0:0:0:
208,192,337848,1,8,0:0:0:0:
208,192,338066,1,8,0:0:0:0:
208,192,338174,1,8,0:0:0:0:
208,192,338392,1,8,0:0:0:0:
208,192,338500,1,8,0:0:0:0:
208,192,338609,1,0,0:0:0:0:
208,192,338718,1,0,0:0:0:0:
208,192,338827,1,8,0:0:0:0:
208,192,338935,1,8,0:0:0:0:
208,192,339044,1,0,0:0:0:0:
208,192,339153,1,0,0:0:0:0:
208,192,339261,1,8,0:0:0:0:
208,192,339370,1,8,0:0:0:0:
208,192,339587,1,8,0:0:0:0:
208,192,339696,1,8,0:0:0:0:
208,192,339914,1,8,0:0:0:0:
208,192,340022,1,8,0:0:0:0:
208,192,340240,1,8,0:0:0:0:
208,192,340348,1,8,0:0:0:0:
208,192,340566,1,8,0:0:0:0:
208,192,340674,1,8,0:0:0:0:
208,192,340892,1,8,0:0:0:0:
208,192,341000,1,8,0:0:0:0:
208,192,341218,1,8,0:0:0:0:
208,192,341327,1,8,0:0:0:0:
208,192,341544,1,8,0:0:0:0:
208,192,341653,1,8,0:0:0:0:
208,192,341870,1,8,0:0:0:0:
208,192,341979,1,8,0:0:0:0:
208,192,342087,1,0,0:0:0:0:
208,192,342196,1,0,0:0:0:0:
208,192,342305,1,8,0:0:0:0:
208,192,342414,1,8,0:0:0:0:
208,192,342522,1,0,0:0:0:0:
208,192,342631,1,0,0:0:0:0:
208,192,342740,1,0,0:0:0:0:
208,192,343609,1,8,0:0:0:0:
208,192,344479,1,0,0:0:0:0:
208,192,345348,1,8,0:0:0:0:
208,192,346218,1,0,0:0:0:0:
208,192,347087,1,8,0:0:0:0:
208,192,347957,1,0,0:0:0:0:
208,192,348827,1,8,0:0:0:0:
208,192,349696,1,0,0:0:0:0:
184,224,350566,1,8,0:0:0:0:
208,192,351435,1,0,0:0:0:0:
184,224,352305,1,8,0:0:0:0:
208,192,353174,1,0,0:0:0:0:
184,224,354044,1,8,0:0:0:0:
176,160,354914,1,0,0:0:0:0:
176,160,355348,1,0,0:0:0:0:
176,160,355783,1,0,0:0:0:0:
176,160,356000,1,0,0:0:0:0:
176,160,356218,1,0,0:0:0:0:
176,160,356327,1,0,0:0:0:0:
176,160,356435,1,0,0:0:0:0:
176,160,356544,1,0,0:0:0:0:
208,192,356653,1,0,0:0:0:0:
208,192,356761,1,0,0:0:0:0:
208,192,356979,1,0,0:0:0:0:
208,192,357087,1,0,0:0:0:0:
208,192,357305,1,0,0:0:0:0:
208,192,357414,1,0,0:0:0:0:
208,192,357631,1,0,0:0:0:0:
208,192,357740,1,8,0:0:0:0:
208,192,357957,1,8,0:0:0:0:
208,192,358066,1,8,0:0:0:0:
208,192,358283,1,8,0:0:0:0:
208,192,358392,1,0,0:0:0:0:
208,192,358609,1,0,0:0:0:0:
208,192,358718,1,0,0:0:0:0:
208,192,358935,1,0,0:0:0:0:
208,192,359044,1,0,0:0:0:0:
208,192,359261,1,8,0:0:0:0:
208,192,359370,1,8,0:0:0:0:
208,192,359479,1,0,0:0:0:0:
208,192,359587,1,0,0:0:0:0:
208,192,359696,1,8,0:0:0:0:
208,192,359805,1,8,0:0:0:0:
208,192,359914,1,0,0:0:0:0:
208,192,360022,1,0,0:0:0:0:
208,192,360131,1,0,0:0:0:0:
208,192,360240,1,0,0:0:0:0:
208,192,360457,1,0,0:0:0:0:
208,192,360566,1,0,0:0:0:0:
208,192,360783,1,0,0:0:0:0:
208,192,360892,1,0,0:0:0:0:
208,192,361109,1,0,0:0:0:0:
208,192,361218,1,8,0:0:0:0:
208,192,361435,1,8,0:0:0:0:
208,192,361544,1,8,0:0:0:0:
208,192,361761,1,0,0:0:0:0:
208,192,361870,1,8,0:0:0:0:
208,192,362087,1,8,0:0:0:0:
208,192,362196,1,0,0:0:0:0:
208,192,362414,1,0,0:0:0:0:
208,192,362522,1,8,0:0:0:0:
208,192,362740,1,8,0:0:0:0:
208,192,362848,1,8,0:0:0:0:
208,192,362957,1,0,0:0:0:0:
208,192,363066,1,0,0:0:0:0:
208,192,363174,1,8,0:0:0:0:
208,192,363283,1,8,0:0:0:0:
208,192,363392,1,0,0:0:0:0:
208,192,363500,1,0,0:0:0:0:
208,192,363609,1,8,0:0:0:0:
208,192,363718,1,8,0:0:0:0:
208,192,363935,1,8,0:0:0:0:
208,192,364044,1,8,0:0:0:0:
208,192,364261,1,8,0:0:0:0:
208,192,364370,1,8,0:0:0:0:
208,192,364587,1,0,0:0:0:0:
208,192,364696,1,8,0:0:0:0:
208,192,364914,1,8,0:0:0:0:
208,192,365022,1,8,0:0:0:0:
208,192,365240,1,8,0:0:0:0:
208,192,365348,1,0,0:0:0:0:
208,192,365566,1,0,0:0:0:0:
208,192,365674,1,8,0:0:0:0:
208,192,365892,1,0,0:0:0:0:
208,192,366000,1,8,0:0:0:0:
208,192,366218,1,8,0:0:0:0:
208,192,366327,1,8,0:0:0:0:
208,192,366435,1,0,0:0:0:0:
208,192,366544,1,0,0:0:0:0:
208,192,366653,1,8,0:0:0:0:
208,192,366761,1,8,0:0:0:0:
208,192,366870,1,0,0:0:0:0:
208,192,366979,1,0,0:0:0:0:
208,192,367087,1,8,0:0:0:0:
208,192,367196,1,8,0:0:0:0:
208,192,367414,1,8,0:0:0:0:
208,192,367522,1,8,0:0:0:0:
208,192,367740,1,8,0:0:0:0:
208,192,367848,1,8,0:0:0:0:
208,192,368066,1,0,0:0:0:0:
208,192,368174,1,8,0:0:0:0:
208,192,368392,1,8,0:0:0:0:
208,192,368500,1,8,0:0:0:0:
208,192,368718,1,8,0:0:0:0:
208,192,368827,1,0,0:0:0:0:
208,192,369044,1,0,0:0:0:0:
208,192,369153,1,8,0:0:0:0:
208,192,369370,1,0,0:0:0:0:
208,192,369479,1,8,0:0:0:0:
208,192,369696,1,8,0:0:0:0:
208,192,369805,1,8,0:0:0:0:
208,192,369914,1,0,0:0:0:0:
208,192,370022,1,0,0:0:0:0:
208,192,370131,1,8,0:0:0:0:
208,192,370240,1,8,0:0:0:0:
208,192,370348,1,0,0:0:0:0:
208,192,370566,1,8,0:0:0:0:
208,192,370674,1,0,0:0:0:0:
208,192,370892,1,0,0:0:0:0:
208,192,371000,1,8,0:0:0:0:
208,192,371218,1,8,0:0:0:0:
208,192,371327,1,0,0:0:0:0:
208,192,371544,1,0,0:0:0:0:
208,192,371653,1,8,0:0:0:0:
208,192,371870,1,8,0:0:0:0:
208,192,371979,1,0,0:0:0:0:
208,192,372196,1,0,0:0:0:0:
208,192,372305,1,8,0:0:0:0:
208,192,372522,1,8,0:0:0:0:
208,192,372631,1,0,0:0:0:0:
208,192,372848,1,0,0:0:0:0:
208,192,372957,1,8,0:0:0:0:
208,192,373174,1,8,0:0:0:0:
208,192,373283,1,8,0:0:0:0:
208,192,373392,1,0,0:0:0:0:
208,192,373500,1,0,0:0:0:0:
208,192,373609,1,8,0:0:0:0:
208,192,373718,1,8,0:0:0:0:
208,192,373827,1,0,0:0:0:0:
208,192,373935,1,0,0:0:0:0:
208,192,374044,1,8,0:0:0:0:
208,192,374153,1,0,0:0:0:0:
208,192,374370,1,0,0:0:0:0:
208,192,374479,1,8,0:0:0:0:
208,192,374696,1,8,0:0:0:0:
208,192,374805,1,0,0:0:0:0:
208,192,375022,1,0,0:0:0:0:
208,192,375131,1,8,0:0:0:0:
208,192,375348,1,8,0:0:0:0:
208,192,375457,1,0,0:0:0:0:
208,192,375674,1,0,0:0:0:0:
208,192,375783,1,8,0:0:0:0:
208,192,376000,1,8,0:0:0:0:
208,192,376109,1,0,0:0:0:0:
208,192,376327,1,0,0:0:0:0:
208,192,376435,1,8,0:0:0:0:
208,192,376653,1,8,0:0:0:0:
208,192,376761,1,8,0:0:0:0:
208,192,376870,1,0,0:0:0:0:
208,192,376979,1,0,0:0:0:0:
208,192,377087,1,8,0:0:0:0:
208,192,377196,1,8,0:0:0:0:
208,192,377305,1,0,0:0:0:0:
208,192,377413,1,0,0:0:0:0:
208,192,377522,1,8,0:0:0:0:
208,192,377631,1,8,0:0:0:0:
208,192,377848,1,0,0:0:0:0:
208,192,377957,1,0,0:0:0:0:
208,192,378174,1,8,0:0:0:0:
208,192,378283,1,8,0:0:0:0:
208,192,378500,1,0,0:0:0:0:
208,192,378609,1,0,0:0:0:0:
208,192,378827,1,8,0:0:0:0:
208,192,378935,1,8,0:0:0:0:
208,192,379153,1,0,0:0:0:0:
208,192,379261,1,0,0:0:0:0:
208,192,379479,1,8,0:0:0:0:
208,192,379587,1,8,0:0:0:0:
208,192,379805,1,0,0:0:0:0:
208,192,379913,1,0,0:0:0:0:
208,192,380131,1,8,0:0:0:0:
208,192,380240,1,8,0:0:0:0:
208,192,380348,1,0,0:0:0:0:
208,192,380457,1,0,0:0:0:0:
208,192,380566,1,8,0:0:0:0:
208,192,380674,1,8,0:0:0:0:
208,192,380783,1,0,0:0:0:0:
208,192,380892,1,0,0:0:0:0:
208,192,381000,1,8,0:0:0:0:
208,192,381109,1,8,0:0:0:0:
208,192,381327,1,0,0:0:0:0:
208,192,381435,1,0,0:0:0:0:
208,192,381653,1,8,0:0:0:0:
208,192,381761,1,8,0:0:0:0:
208,192,381979,1,0,0:0:0:0:
208,192,382087,1,0,0:0:0:0:
208,192,382305,1,8,0:0:0:0:
208,192,382413,1,8,0:0:0:0:
208,192,382631,1,0,0:0:0:0:
208,192,382740,1,0,0:0:0:0:
208,192,382957,1,8,0:0:0:0:
208,192,383066,1,8,0:0:0:0:
208,192,383283,1,0,0:0:0:0:
208,192,383392,1,0,0:0:0:0:
208,192,383609,1,8,0:0:0:0:
208,192,383718,1,8,0:0:0:0:
208,192,383827,1,0,0:0:0:0:
208,192,383935,1,0,0:0:0:0:
208,192,384044,1,8,0:0:0:0:
208,192,384153,1,8,0:0:0:0:
208,192,384261,1,0,0:0:0:0:
208,192,384370,1,0,0:0:0:0:
208,192,384479,1,8,0:0:0:0:
208,192,384587,1,0,0:0:0:0:
208,192,384696,1,0,0:0:0:0:
208,192,384805,1,0,0:0:0:0:
208,192,384913,1,0,0:0:0:0:
208,192,385022,1,0,0:0:0:0:
208,192,385131,1,0,0:0:0:0:
208,192,385240,1,0,0:0:0:0:
208,192,385348,1,8,0:0:0:0:
208,192,385457,1,0,0:0:0:0:
208,192,385566,1,0,0:0:0:0:
208,192,385674,1,0,0:0:0:0:
208,192,385783,1,0,0:0:0:0:
208,192,385892,1,0,0:0:0:0:
208,192,386000,1,0,0:0:0:0:
208,192,386109,1,0,0:0:0:0:
208,192,386218,1,8,0:0:0:0:
208,192,386327,1,0,0:0:0:0:
208,192,386435,1,0,0:0:0:0:
208,192,386544,1,0,0:0:0:0:
208,192,386653,1,0,0:0:0:0:
208,192,386761,1,0,0:0:0:0:
208,192,386870,1,0,0:0:0:0:
208,192,386979,1,0,0:0:0:0:
208,192,387087,1,8,0:0:0:0:
208,192,387196,1,0,0:0:0:0:
208,192,387305,1,0,0:0:0:0:
208,192,387413,1,0,0:0:0:0:
208,192,387522,1,0,0:0:0:0:
208,192,387631,1,0,0:0:0:0:
208,192,387740,1,0,0:0:0:0:
208,192,387848,1,0,0:0:0:0:
208,192,387957,1,8,0:0:0:0:
208,192,388066,1,0,0:0:0:0:
208,192,388174,1,0,0:0:0:0:
208,192,388283,1,0,0:0:0:0:
208,192,388392,1,0,0:0:0:0:
208,192,388500,1,0,0:0:0:0:
208,192,388609,1,0,0:0:0:0:
208,192,388718,1,0,0:0:0:0:
208,192,388827,1,8,0:0:0:0:
208,192,388935,1,0,0:0:0:0:
208,192,389044,1,0,0:0:0:0:
208,192,389153,1,0,0:0:0:0:
208,192,389261,1,0,0:0:0:0:
208,192,389370,1,0,0:0:0:0:
208,192,389479,1,0,0:0:0:0:
208,192,389587,1,0,0:0:0:0:
208,192,389696,1,8,0:0:0:0:
208,192,389805,1,0,0:0:0:0:
208,192,389913,1,0,0:0:0:0:
208,192,390022,1,0,0:0:0:0:
208,192,390131,1,0,0:0:0:0:
208,192,390240,1,0,0:0:0:0:
208,192,390348,1,0,0:0:0:0:
208,192,390457,1,0,0:0:0:0:
208,192,390566,1,8,0:0:0:0:
208,192,390674,1,0,0:0:0:0:
208,192,390783,1,0,0:0:0:0:
208,192,390892,1,0,0:0:0:0:
208,192,391000,1,0,0:0:0:0:
208,192,391109,1,0,0:0:0:0:
208,192,391218,1,0,0:0:0:0:
208,192,391327,1,0,0:0:0:0:
208,192,391435,1,12,0:0:0:0:
208,192,391725,1,12,0:0:0:0:
208,192,392015,1,12,0:0:0:0:
208,192,392305,1,12,0:0:0:0:
208,192,392595,1,12,0:0:0:0:
208,192,392885,1,12,0:0:0:0:
208,192,393174,1,12,0:0:0:0:
208,192,393464,1,12,0:0:0:0:
208,192,393754,1,12,0:0:0:0:
208,192,394044,1,12,0:0:0:0:
208,192,394334,1,12,0:0:0:0:
208,192,394624,1,12,0:0:0:0:
208,192,394913,1,12,0:0:0:0:
208,192,395058,1,12,0:0:0:0:
208,192,395203,1,12,0:0:0:0:
208,192,395348,1,12,0:0:0:0:
208,192,395493,1,12,0:0:0:0:
208,192,395638,1,12,0:0:0:0:
208,192,395783,1,12,0:0:0:0:
208,192,395928,1,12,0:0:0:0:
208,192,396073,1,12,0:0:0:0:
208,192,396218,1,12,0:0:0:0:
208,192,396363,1,12,0:0:0:0:
208,192,396508,1,12,0:0:0:0:
0,96,400131,1,0,0:0:0:0:
216,224,400276,1,0,0:0:0:0:
216,224,400421,1,0,0:0:0:0:
216,224,400566,1,0,0:0:0:0:
216,224,400711,1,0,0:0:0:0:
216,224,400856,1,8,0:0:0:0:
216,224,401000,1,8,0:0:0:0:
216,224,401145,1,0,0:0:0:0:
216,224,401290,1,0,0:0:0:0:
216,224,401435,1,0,0:0:0:0:
216,224,401580,1,0,0:0:0:0:
216,224,401725,1,0,0:0:0:0:
208,192,401870,1,8,0:0:0:0:
208,192,401979,1,8,0:0:0:0:
208,192,402087,1,0,0:0:0:0:
208,192,402196,1,0,0:0:0:0:
208,192,402305,1,8,0:0:0:0:
208,192,402522,1,8,0:0:0:0:
208,192,402631,1,8,0:0:0:0:
208,192,402848,1,0,0:0:0:0:
208,192,402957,1,8,0:0:0:0:
208,192,403174,1,8,0:0:0:0:
208,192,403283,1,8,0:0:0:0:
208,192,403392,1,0,0:0:0:0:
208,192,403500,1,0,0:0:0:0:
208,192,403609,1,8,0:0:0:0:
208,192,403827,1,8,0:0:0:0:
208,192,403935,1,8,0:0:0:0:
208,192,404044,1,0,0:0:0:0:
208,192,404153,1,0,0:0:0:0:
208,192,404261,1,8,0:0:0:0:
208,192,404479,1,8,0:0:0:0:
208,192,404587,1,8,0:0:0:0:
208,192,404696,1,0,0:0:0:0:
208,192,404805,1,0,0:0:0:0:
208,192,404913,1,8,0:0:0:0:
208,192,405022,1,8,0:0:0:0:
208,192,405131,1,0,0:0:0:0:
208,192,405240,1,0,0:0:0:0:
208,192,405348,1,8,0:0:0:0:
208,192,405457,1,8,0:0:0:0:
208,192,405566,1,0,0:0:0:0:
208,192,405674,1,0,0:0:0:0:
208,192,405783,1,8,0:0:0:0:
208,192,406000,1,8,0:0:0:0:
208,192,406109,1,8,0:0:0:0:
208,192,406327,1,0,0:0:0:0:
208,192,406435,1,8,0:0:0:0:
208,192,406653,1,8,0:0:0:0:
208,192,406761,1,8,0:0:0:0:
208,192,406870,1,0,0:0:0:0:
208,192,406979,1,0,0:0:0:0:
208,192,407087,1,8,0:0:0:0:
208,192,407305,1,8,0:0:0:0:
208,192,407413,1,8,0:0:0:0:
208,192,407522,1,0,0:0:0:0:
208,192,407631,1,0,0:0:0:0:
208,192,407740,1,8,0:0:0:0:
208,192,407957,1,8,0:0:0:0:
208,192,408066,1,8,0:0:0:0:
208,192,408174,1,0,0:0:0:0:
208,192,408283,1,0,0:0:0:0:
208,192,408392,1,8,0:0:0:0:
208,192,408500,1,8,0:0:0:0:
208,192,408609,1,0,0:0:0:0:
208,192,408718,1,0,0:0:0:0:
208,192,408827,1,8,0:0:0:0:
208,192,408935,1,8,0:0:0:0:
208,192,409044,1,0,0:0:0:0:
208,192,409153,1,8,0:0:0:0:
208,192,409261,1,8,0:0:0:0:
208,192,409479,1,8,0:0:0:0:
208,192,409587,1,8,0:0:0:0:
208,192,409696,1,0,0:0:0:0:
208,192,409805,1,8,0:0:0:0:
208,192,409913,1,8,0:0:0:0:
208,192,410131,1,8,0:0:0:0:
208,192,410240,1,8,0:0:0:0:
208,192,410348,1,0,0:0:0:0:
208,192,410457,1,8,0:0:0:0:
208,192,410566,1,8,0:0:0:0:
208,192,410783,1,8,0:0:0:0:
208,192,410892,1,8,0:0:0:0:
208,192,411109,1,8,0:0:0:0:
208,192,411218,1,8,0:0:0:0:
208,192,411435,1,8,0:0:0:0:
208,192,411544,1,8,0:0:0:0:
208,192,411653,1,0,0:0:0:0:
208,192,411761,1,0,0:0:0:0:
208,192,411870,1,8,0:0:0:0:
208,192,411979,1,8,0:0:0:0:
208,192,412087,1,0,0:0:0:0:
208,192,412196,1,0,0:0:0:0:
208,192,412305,1,8,0:0:0:0:
208,192,412413,1,8,0:0:0:0:
208,192,412522,1,0,0:0:0:0:
208,192,412631,1,8,0:0:0:0:
208,192,412740,1,8,0:0:0:0:
208,192,412957,1,8,0:0:0:0:
208,192,413066,1,8,0:0:0:0:
208,192,413174,1,0,0:0:0:0:
208,192,413283,1,8,0:0:0:0:
208,192,413392,1,8,0:0:0:0:
208,192,413609,1,8,0:0:0:0:
208,192,413718,1,8,0:0:0:0:
208,192,413827,1,0,0:0:0:0:
208,192,413935,1,8,0:0:0:0:
208,192,414044,1,8,0:0:0:0:
208,192,414261,1,8,0:0:0:0:
208,192,414370,1,8,0:0:0:0:
208,192,414479,1,0,0:0:0:0:
208,192,414696,1,8,0:0:0:0:
208,192,414913,1,8,0:0:0:0:
208,192,415131,1,0,0:0:0:0:
208,192,415348,1,0,0:0:0:0:
208,192,415566,1,8,0:0:0:0:
208,192,415783,1,0,0:0:0:0:
208,192,415892,1,0,0:0:0:0:
208,192,416109,1,0,0:0:0:0:
208,192,416218,1,8,0:0:0:0:
208,192,416435,1,0,0:0:0:0:
208,192,416544,1,0,0:0:0:0:
208,192,416761,1,0,0:0:0:0:
208,192,416870,1,8,0:0:0:0:
208,192,417087,1,0,0:0:0:0:
208,192,417196,1,0,0:0:0:0:
208,192,417413,1,0,0:0:0:0:
208,192,417522,1,8,0:0:0:0:
208,192,417740,1,0,0:0:0:0:
208,192,417848,1,0,0:0:0:0:
208,192,418066,1,0,0:0:0:0:
208,192,418174,1,8,0:0:0:0:
208,192,418392,1,8,0:0:0:0:
208,192,418609,1,0,0:0:0:0:
208,192,418718,1,0,0:0:0:0:
208,192,418827,1,0,0:0:0:0:
208,192,419044,1,8,0:0:0:0:
208,192,419261,1,8,0:0:0:0:
208,192,419370,1,0,0:0:0:0:
208,192,419587,1,0,0:0:0:0:
208,192,419696,1,0,0:0:0:0:
208,192,419913,1,8,0:0:0:0:
208,192,420022,1,0,0:0:0:0:
208,192,420240,1,0,0:0:0:0:
208,192,420348,1,0,0:0:0:0:
208,192,420566,1,8,0:0:0:0:
208,192,420674,1,0,0:0:0:0:
208,192,420892,1,0,0:0:0:0:
208,192,421000,1,0,0:0:0:0:
208,192,421218,1,8,0:0:0:0:
208,192,421327,1,0,0:0:0:0:
208,192,421544,1,0,0:0:0:0:
208,192,421653,1,0,0:0:0:0:
208,192,421870,1,8,0:0:0:0:
208,192,422087,1,0,0:0:0:0:
208,192,422305,1,0,0:0:0:0:
208,192,422522,1,8,0:0:0:0:
208,192,422740,1,8,0:0:0:0:
208,192,422848,1,0,0:0:0:0:
208,192,423066,1,0,0:0:0:0:
208,192,423174,1,8,0:0:0:0:
208,192,423392,1,8,0:0:0:0:
208,192,423500,1,0,0:0:0:0:
208,192,423718,1,0,0:0:0:0:
208,192,423827,1,8,0:0:0:0:
208,192,424044,1,8,0:0:0:0:
208,192,424153,1,0,0:0:0:0:
208,192,424370,1,0,0:0:0:0:
208,192,424479,1,8,0:0:0:0:
208,192,424696,1,8,0:0:0:0:
208,192,424805,1,0,0:0:0:0:
208,192,425022,1,0,0:0:0:0:
208,192,425131,1,8,0:0:0:0:
208,192,425348,1,8,0:0:0:0:
208,192,425566,1,0,0:0:0:0:
208,192,425674,1,0,0:0:0:0:
208,192,425783,1,0,0:0:0:0:
208,192,426000,1,8,0:0:0:0:
208,192,426218,1,8,0:0:0:0:
208,192,426327,1,8,0:0:0:0:
208,192,426544,1,0,0:0:0:0:
208,192,426653,1,8,0:0:0:0:
208,192,426870,1,8,0:0:0:0:
208,192,426979,1,8,0:0:0:0:
208,192,427196,1,0,0:0:0:0:
208,192,427305,1,8,0:0:0:0:
208,192,427522,1,8,0:0:0:0:
208,192,427631,1,8,0:0:0:0:
208,192,427848,1,0,0:0:0:0:
208,192,427957,1,8,0:0:0:0:
208,192,428174,1,8,0:0:0:0:
208,192,428392,1,8,0:0:0:0:
208,192,428609,1,8,0:0:0:0:
208,192,428827,1,8,0:0:0:0:
208,192,428935,1,8,0:0:0:0:
208,192,429044,1,0,0:0:0:0:
208,192,429153,1,0,0:0:0:0:
208,192,429261,1,8,0:0:0:0:
208,192,429370,1,8,0:0:0:0:
208,192,429479,1,0,0:0:0:0:
208,192,429587,1,0,0:0:0:0:
208,192,429696,1,0,0:0:0:0:
208,192,429805,1,0,0:0:0:0:
208,192,429913,1,0,0:0:0:0:
208,192,430022,1,0,0:0:0:0:
208,192,430131,1,0,0:0:0:0:
208,192,430348,1,0,0:0:0:0:
208,192,430457,1,0,0:0:0:0:
208,192,430566,1,0,0:0:0:0:
208,192,430674,1,0,0:0:0:0:
208,192,430783,1,8,0:0:0:0:
208,192,431000,1,8,0:0:0:0:
208,192,431109,1,8,0:0:0:0:
208,192,431218,1,0,0:0:0:0:
208,192,431327,1,8,0:0:0:0:
208,192,431435,1,0,0:0:0:0:
208,192,431653,1,8,0:0:0:0:
208,192,431761,1,8,0:0:0:0:
208,192,431870,1,0,0:0:0:0:
208,192,431979,1,0,0:0:0:0:
208,192,432087,1,8,0:0:0:0:
208,192,432305,1,8,0:0:0:0:
208,192,432413,1,8,0:0:0:0:
208,192,432522,1,0,0:0:0:0:
208,192,432631,1,0,0:0:0:0:
208,192,432740,1,8,0:0:0:0:
208,192,432848,1,8,0:0:0:0:
208,192,432957,1,0,0:0:0:0:
208,192,433066,1,0,0:0:0:0:
208,192,433174,1,0,0:0:0:0:
208,192,433283,1,0,0:0:0:0:
208,192,433392,1,0,0:0:0:0:
208,192,433500,1,0,0:0:0:0:
208,192,433609,1,0,0:0:0:0:
208,192,433827,1,0,0:0:0:0:
208,192,433935,1,0,0:0:0:0:
208,192,434044,1,0,0:0:0:0:
208,192,434153,1,0,0:0:0:0:
208,192,434261,1,8,0:0:0:0:
208,192,434479,1,8,0:0:0:0:
208,192,434587,1,8,0:0:0:0:
208,192,434696,1,0,0:0:0:0:
208,192,434805,1,0,0:0:0:0:
208,192,434913,1,8,0:0:0:0:
208,192,435131,1,8,0:0:0:0:
208,192,435240,1,0,0:0:0:0:
208,192,435348,1,0,0:0:0:0:
208,192,435457,1,0,0:0:0:0:
208,192,435566,1,8,0:0:0:0:
208,192,435783,1,8,0:0:0:0:
208,192,435892,1,8,0:0:0:0:
208,192,436000,1,0,0:0:0:0:
208,192,436109,1,0,0:0:0:0:
208,192,436218,1,8,0:0:0:0:
208,192,436327,1,8,0:0:0:0:
208,192,436435,1,0,0:0:0:0:
208,192,436544,1,0,0:0:0:0:
208,192,436653,1,8,0:0:0:0:
208,192,436761,1,8,0:0:0:0:
208,192,436870,1,0,0:0:0:0:
208,192,436979,1,8,0:0:0:0:
208,192,437087,1,8,0:0:0:0:
208,192,437305,1,8,0:0:0:0:
208,192,437413,1,8,0:0:0:0:
208,192,437522,1,0,0:0:0:0:
208,192,437631,1,8,0:0:0:0:
208,192,437740,1,0,0:0:0:0:
208,192,437957,1,8,0:0:0:0:
208,192,438066,1,0,0:0:0:0:
208,192,438174,1,0,0:0:0:0:
208,192,438283,1,8,0:0:0:0:
208,192,438392,1,0,0:0:0:0:
208,192,438609,1,8,0:0:0:0:
208,192,438718,1,0,0:0:0:0:
208,192,438827,1,0,0:0:0:0:
208,192,438935,1,0,0:0:0:0:
208,192,439044,1,0,0:0:0:0:
208,192,439261,1,8,0:0:0:0:
208,192,439370,1,8,0:0:0:0:
208,192,439479,1,0,0:0:0:0:
208,192,439587,1,0,0:0:0:0:
208,192,439696,1,8,0:0:0:0:
208,192,439805,1,8,0:0:0:0:
208,192,439913,1,0,0:0:0:0:
208,192,440022,1,0,0:0:0:0:
208,192,440131,1,8,0:0:0:0:
208,192,440240,1,8,0:0:0:0:
208,192,440348,1,0,0:0:0:0:
208,192,440457,1,8,0:0:0:0:
208,192,440566,1,8,0:0:0:0:
208,192,440783,1,8,0:0:0:0:
208,192,440892,1,8,0:0:0:0:
208,192,441000,1,0,0:0:0:0:
208,192,441109,1,0,0:0:0:0:
208,192,441218,1,8,0:0:0:0:
208,192,441435,1,8,0:0:0:0:
208,192,441544,1,0,0:0:0:0:
208,192,441653,1,0,0:0:0:0:
208,192,441761,1,0,0:0:0:0:
256,192,441870,8,0,442740,0:0:0:0:
208,192,443174,5,4,0:0:0:0:
208,192,443392,1,4,0:0:0:0:
208,192,443609,1,0,0:0:0:0:
208,192,443718,1,0,0:0:0:0:
208,192,443827,1,0,0:0:0:0:
208,192,443935,1,0,0:0:0:0:
208,192,444044,1,0,0:0:0:0:
208,192,444261,1,0,0:0:0:0:
208,192,444370,1,0,0:0:0:0:
208,192,444479,1,0,0:0:0:0:
208,192,444587,1,0,0:0:0:0:
208,192,444696,1,8,0:0:0:0:
208,192,444913,1,8,0:0:0:0:
208,192,445022,1,8,0:0:0:0:
208,192,445131,1,0,0:0:0:0:
208,192,445240,1,8,0:0:0:0:
208,192,445348,1,0,0:0:0:0:
208,192,445566,1,8,0:0:0:0:
208,192,445674,1,8,0:0:0:0:
208,192,445783,1,0,0:0:0:0:
208,192,445892,1,0,0:0:0:0:
208,192,446000,1,8,0:0:0:0:
208,192,446218,1,8,0:0:0:0:
208,192,446327,1,8,0:0:0:0:
208,192,446435,1,0,0:0:0:0:
208,192,446544,1,0,0:0:0:0:
208,192,446653,1,8,0:0:0:0:
208,192,446761,1,8,0:0:0:0:
208,192,446870,1,0,0:0:0:0:
208,192,446979,1,0,0:0:0:0:
208,192,447087,1,0,0:0:0:0:
208,192,447196,1,0,0:0:0:0:
208,192,447305,1,0,0:0:0:0:
208,192,447413,1,0,0:0:0:0:
208,192,447522,1,0,0:0:0:0:
208,192,447740,1,0,0:0:0:0:
208,192,447848,1,0,0:0:0:0:
208,192,447957,1,0,0:0:0:0:
208,192,448066,1,0,0:0:0:0:
208,192,448174,1,8,0:0:0:0:
208,192,448392,1,8,0:0:0:0:
208,192,448500,1,8,0:0:0:0:
208,192,448609,1,0,0:0:0:0:
208,192,448718,1,0,0:0:0:0:
208,192,448827,1,8,0:0:0:0:
208,192,449044,1,8,0:0:0:0:
208,192,449153,1,0,0:0:0:0:
208,192,449261,1,0,0:0:0:0:
208,192,449370,1,0,0:0:0:0:
208,192,449479,1,8,0:0:0:0:
208,192,449696,1,8,0:0:0:0:
208,192,449805,1,8,0:0:0:0:
208,192,449913,1,0,0:0:0:0:
208,192,450022,1,0,0:0:0:0:
208,192,450131,1,8,0:0:0:0:
208,192,450240,1,8,0:0:0:0:
208,192,450348,1,0,0:0:0:0:
208,192,450457,1,0,0:0:0:0:
208,192,450566,1,8,0:0:0:0:
208,192,450674,1,8,0:0:0:0:
208,192,450783,1,0,0:0:0:0:
208,192,450892,1,8,0:0:0:0:
208,192,451000,1,8,0:0:0:0:
208,192,451218,1,8,0:0:0:0:
208,192,451327,1,8,0:0:0:0:
208,192,451435,1,0,0:0:0:0:
208,192,451544,1,8,0:0:0:0:
208,192,451653,1,0,0:0:0:0:
208,192,451870,1,8,0:0:0:0:
208,192,451979,1,0,0:0:0:0:
208,192,452087,1,0,0:0:0:0:
208,192,452196,1,8,0:0:0:0:
208,192,452305,1,0,0:0:0:0:
208,192,452522,1,8,0:0:0:0:
208,192,452631,1,0,0:0:0:0:
208,192,452740,1,0,0:0:0:0:
208,192,452848,1,0,0:0:0:0:
208,192,452957,1,0,0:0:0:0:
208,192,453174,1,8,0:0:0:0:
208,192,453283,1,8,0:0:0:0:
208,192,453392,1,0,0:0:0:0:
208,192,453500,1,0,0:0:0:0:
208,192,453609,1,8,0:0:0:0:
208,192,453718,1,8,0:0:0:0:
208,192,453827,1,0,0:0:0:0:
208,192,453935,1,0,0:0:0:0:
208,192,454044,1,8,0:0:0:0:
208,192,454153,1,8,0:0:0:0:
208,192,454261,1,0,0:0:0:0:
208,192,454370,1,8,0:0:0:0:
208,192,454479,1,8,0:0:0:0:
208,192,454696,1,8,0:0:0:0:
208,192,454805,1,8,0:0:0:0:
208,192,454913,1,0,0:0:0:0:
208,192,455022,1,0,0:0:0:0:
208,192,455131,1,8,0:0:0:0:
208,192,455348,1,8,0:0:0:0:
208,192,455457,1,8,0:0:0:0:
208,192,455566,1,0,0:0:0:0:
256,216,455783,1,12,0:0:0:0:
256,216,456073,1,12,0:0:0:0:
248,200,456363,1,12,0:0:0:0:
248,200,456653,1,8,0:0:0:0:
248,200,456798,1,8,0:0:0:0:
248,200,456942,1,8,0:0:0:0:
248,200,457087,1,8,0:0:0:0:
248,200,457232,1,8,0:0:0:0:
256,216,457377,1,8,0:0:0:0:
227,208,457522,1,8,0:0:0:0:
227,208,457740,1,0,0:0:0:0:
227,208,457848,1,0,0:0:0:0:
227,208,457957,1,8,0:0:0:0:
227,208,458174,1,8,0:0:0:0:
227,208,458392,1,8,0:0:0:0:
227,208,458609,1,0,0:0:0:0:
227,208,458718,1,0,0:0:0:0:
227,208,458827,1,8,0:0:0:0:
227,208,459044,1,8,0:0:0:0:
227,208,459261,1,8,0:0:0:0:
227,208,459479,1,0,0:0:0:0:
227,208,459587,1,0,0:0:0:0:
227,208,459696,1,8,0:0:0:0:
203,195,459913,1,0,0:0:0:0:
227,208,460022,1,0,0:0:0:0:
227,208,460131,1,8,0:0:0:0:
227,208,460240,1,0,0:0:0:0:
227,208,460348,1,0,0:0:0:0:
227,208,460457,1,0,0:0:0:0:
227,208,460566,1,8,0:0:0:0:
227,208,460783,1,8,0:0:0:0:
227,208,461000,1,0,0:0:0:0:
227,208,461218,1,8,0:0:0:0:
203,195,461327,1,0,0:0:0:0:
203,195,461435,1,8,0:0:0:0:
227,208,461653,1,8,0:0:0:0:
227,208,461761,1,0,0:0:0:0:
227,208,461870,1,8,0:0:0:0:
227,208,462087,1,8,0:0:0:0:
227,208,462196,1,0,0:0:0:0:
227,208,462305,1,8,0:0:0:0:
227,208,462413,1,0,0:0:0:0:
227,208,462522,1,8,0:0:0:0:
227,208,462740,1,8,0:0:0:0:
227,208,462848,1,0,0:0:0:0:
227,208,462957,1,8,0:0:0:0:
227,208,463066,1,0,0:0:0:0:
227,208,463174,1,8,0:0:0:0:
227,208,463283,1,0,0:0:0:0:
227,208,463392,1,8,0:0:0:0:
227,208,463500,1,0,0:0:0:0:
227,208,463609,1,8,0:0:0:0:
227,208,463827,1,0,0:0:0:0:
227,208,463935,1,0,0:0:0:0:
227,208,464044,1,8,0:0:0:0:
227,208,464261,1,0,0:0:0:0:
227,208,464479,1,8,0:0:0:0:
227,208,464696,1,0,0:0:0:0:
227,208,464805,1,0,0:0:0:0:
227,208,464913,1,8,0:0:0:0:
227,208,465131,1,8,0:0:0:0:
227,208,465348,1,8,0:0:0:0:
227,208,465566,1,0,0:0:0:0:
227,208,465674,1,0,0:0:0:0:
227,208,465783,1,8,0:0:0:0:
227,208,466000,1,8,0:0:0:0:
227,208,466218,1,8,0:0:0:0:
227,208,466435,1,0,0:0:0:0:
227,208,466544,1,0,0:0:0:0:
227,208,466653,1,8,0:0:0:0:
203,195,466870,1,0,0:0:0:0:
227,208,466979,1,0,0:0:0:0:
227,208,467087,1,8,0:0:0:0:
227,208,467196,1,0,0:0:0:0:
227,208,467305,1,0,0:0:0:0:
227,208,467413,1,0,0:0:0:0:
227,208,467522,1,8,0:0:0:0:
227,208,467740,1,8,0:0:0:0:
227,208,467848,1,0,0:0:0:0:
227,208,467957,1,0,0:0:0:0:
227,208,468174,1,8,0:0:0:0:
203,195,468283,1,0,0:0:0:0:
203,195,468392,1,8,0:0:0:0:
227,208,468609,1,8,0:0:0:0:
227,208,468718,1,0,0:0:0:0:
227,208,468827,1,8,0:0:0:0:
227,208,469044,1,8,0:0:0:0:
227,208,469153,1,0,0:0:0:0:
227,208,469261,1,8,0:0:0:0:
227,208,469370,1,0,0:0:0:0:
227,208,469479,1,8,0:0:0:0:
227,208,469587,1,0,0:0:0:0:
227,208,469696,1,8,0:0:0:0:
227,208,469913,1,0,0:0:0:0:
227,208,470131,1,8,0:0:0:0:
227,208,470240,1,0,0:0:0:0:
227,208,470348,1,8,0:0:0:0:
227,208,470457,1,0,0:0:0:0:
227,208,470566,1,8,0:0:0:0:
227,208,470674,1,0,0:0:0:0:
227,208,470783,1,0,0:0:0:0:
227,208,470892,1,0,0:0:0:0:
227,208,471000,1,8,0:0:0:0:
227,208,471218,1,0,0:0:0:0:
227,208,471435,1,12,0:0:0:0:
227,208,471653,1,0,0:0:0:0:
227,208,471761,1,0,0:0:0:0:
227,208,471870,1,8,0:0:0:0:
227,208,472087,1,8,0:0:0:0:
227,208,472305,1,8,0:0:0:0:
227,208,472522,1,0,0:0:0:0:
227,208,472631,1,0,0:0:0:0:
227,208,472740,1,8,0:0:0:0:
227,208,472957,1,8,0:0:0:0:
227,208,473174,1,8,0:0:0:0:
227,208,473392,1,0,0:0:0:0:
227,208,473500,1,0,0:0:0:0:
227,208,473609,1,8,0:0:0:0:
203,195,473827,1,0,0:0:0:0:
227,208,473935,1,0,0:0:0:0:
227,208,474044,1,8,0:0:0:0:
227,208,474153,1,0,0:0:0:0:
227,208,474261,1,0,0:0:0:0:
227,208,474370,1,0,0:0:0:0:
227,208,474479,1,8,0:0:0:0:
227,208,474696,1,8,0:0:0:0:
227,208,474913,1,0,0:0:0:0:
227,208,475131,1,8,0:0:0:0:
203,195,475240,1,0,0:0:0:0:
203,195,475348,1,8,0:0:0:0:
227,208,475566,1,8,0:0:0:0:
227,208,475674,1,0,0:0:0:0:
227,208,475783,1,8,0:0:0:0:
227,208,476000,1,8,0:0:0:0:
227,208,476109,1,0,0:0:0:0:
227,208,476218,1,8,0:0:0:0:
227,208,476327,1,0,0:0:0:0:
227,208,476435,1,8,0:0:0:0:
227,208,476653,1,8,0:0:0:0:
203,195,476761,1,0,0:0:0:0:
227,208,476870,1,8,0:0:0:0:
227,208,476979,1,0,0:0:0:0:
227,208,477087,1,8,0:0:0:0:
227,208,477196,1,0,0:0:0:0:
227,208,477305,1,8,0:0:0:0:
227,208,477413,1,0,0:0:0:0:
227,208,477522,1,8,0:0:0:0:
227,208,477740,1,0,0:0:0:0:
227,208,477848,1,0,0:0:0:0:
227,208,477957,1,8,0:0:0:0:
227,208,478174,1,0,0:0:0:0:
227,208,478392,1,8,0:0:0:0:
227,208,478609,1,0,0:0:0:0:
227,208,478718,1,0,0:0:0:0:
227,208,478827,1,8,0:0:0:0:
227,208,479044,1,8,0:0:0:0:
227,208,479261,1,8,0:0:0:0:
227,208,479479,1,0,0:0:0:0:
227,208,479587,1,0,0:0:0:0:
227,208,479696,1,8,0:0:0:0:
227,208,479913,1,8,0:0:0:0:
227,208,480131,1,8,0:0:0:0:
227,208,480348,1,0,0:0:0:0:
227,208,480457,1,0,0:0:0:0:
227,208,480566,1,8,0:0:0:0:
203,195,480783,1,0,0:0:0:0:
227,208,480892,1,0,0:0:0:0:
227,208,481000,1,8,0:0:0:0:
227,208,481109,1,0,0:0:0:0:
227,208,481218,1,0,0:0:0:0:
227,208,481327,1,0,0:0:0:0:
227,208,481435,1,8,0:0:0:0:
227,208,481653,1,8,0:0:0:0:
227,208,481761,1,0,0:0:0:0:
227,208,481870,1,8,0:0:0:0:
227,208,482087,1,8,0:0:0:0:
203,195,482196,1,0,0:0:0:0:
203,195,482305,1,8,0:0:0:0:
227,208,482522,1,8,0:0:0:0:
227,208,482631,1,0,0:0:0:0:
227,208,482740,1,8,0:0:0:0:
227,208,482957,1,8,0:0:0:0:
227,208,483174,1,8,0:0:0:0:
227,208,483283,1,0,0:0:0:0:
227,208,483392,1,8,0:0:0:0:
227,208,483500,1,0,0:0:0:0:
227,208,483609,1,8,0:0:0:0:
227,208,483827,1,0,0:0:0:0:
227,208,484044,1,8,0:0:0:0:
227,208,484261,1,0,0:0:0:0:
227,208,484479,1,8,0:0:0:0:
227,208,484587,1,0,0:0:0:0:
227,208,484696,1,8,0:0:0:0:
227,208,484805,1,0,0:0:0:0:
227,208,484913,1,8,0:0:0:0:
227,208,485131,1,0,0:0:0:0:
227,208,485348,1,12,0:0:0:0:
227,208,485566,1,0,0:0:0:0:
227,208,485674,1,0,0:0:0:0:
227,208,485783,1,8,0:0:0:0:
227,208,486000,1,8,0:0:0:0:
227,208,486218,1,8,0:0:0:0:
227,208,486435,1,0,0:0:0:0:
227,208,486544,1,0,0:0:0:0:
227,208,486653,1,8,0:0:0:0:
227,208,486870,1,8,0:0:0:0:
227,208,487087,1,8,0:0:0:0:
227,208,487305,1,0,0:0:0:0:
227,208,487413,1,0,0:0:0:0:
227,208,487522,1,8,0:0:0:0:
203,195,487740,1,0,0:0:0:0:
227,208,487848,1,0,0:0:0:0:
227,208,487957,1,8,0:0:0:0:
227,208,488066,1,0,0:0:0:0:
227,208,488174,1,0,0:0:0:0:
227,208,488283,1,0,0:0:0:0:
227,208,488392,1,8,0:0:0:0:
227,208,488609,1,8,0:0:0:0:
227,208,492305,1,8,0:0:0:0:
227,208,492522,1,0,0:0:0:0:
227,208,492631,1,0,0:0:0:0:
227,208,492740,1,8,0:0:0:0:
227,208,492957,1,8,0:0:0:0:
227,208,493174,1,8,0:0:0:0:
227,208,493392,1,0,0:0:0:0:
227,208,493500,1,0,0:0:0:0:
227,208,493609,1,8,0:0:0:0:
227,208,493827,1,8,0:0:0:0:
227,208,494044,1,8,0:0:0:0:
227,208,494261,1,0,0:0:0:0:
227,208,494370,1,0,0:0:0:0:
227,208,494479,1,8,0:0:0:0:
203,195,494696,1,0,0:0:0:0:
227,208,494805,1,0,0:0:0:0:
227,208,494913,1,8,0:0:0:0:
227,208,495022,1,0,0:0:0:0:
227,208,495131,1,0,0:0:0:0:
227,208,495240,1,0,0:0:0:0:
227,208,495348,1,8,0:0:0:0:
227,208,495566,1,8,0:0:0:0:
240,208,498827,1,0,0:0:0:0:
240,208,499044,1,0,0:0:0:0:
232,200,499261,1,12,0:0:0:0:
232,200,499696,1,0,0:0:0:0:
232,200,500131,1,0,0:0:0:0:
232,200,500566,1,0,0:0:0:0:
232,200,501000,1,0,0:0:0:0:
232,200,501435,1,0,0:0:0:0:
232,200,501870,1,0,0:0:0:0:
232,200,502305,1,0,0:0:0:0:
232,200,502740,1,8,0:0:0:0:
232,200,503174,1,0,0:0:0:0:
232,200,503609,1,0,0:0:0:0:
232,200,504044,1,0,0:0:0:0:
232,200,504479,1,0,0:0:0:0:
232,200,504913,1,0,0:0:0:0:
232,200,505348,1,0,0:0:0:0:
232,200,505783,1,8,0:0:0:0:
232,200,506218,1,12,0:0:0:0:
232,200,506653,1,0,0:0:0:0:
232,200,507087,1,0,0:0:0:0:
232,200,507522,1,0,0:0:0:0:
232,200,507957,1,12,0:0:0:0:
232,200,508392,1,0,0:0:0:0:
232,200,508827,1,0,0:0:0:0:
232,200,509261,1,8,0:0:0:0:
232,200,509479,1,0,0:0:0:0:
232,200,509696,1,12,0:0:0:0:
232,200,510566,1,12,0:0:0:0:
256,192,511435,12,0,512957,0:0:0:0:
232,200,513392,5,8,0:0:0:0:
232,200,513609,1,0,0:0:0:0:
232,200,513827,1,8,0:0:0:0:
232,200,514261,1,8,0:0:0:0:
232,200,514479,1,0,0:0:0:0:
232,200,514696,1,8,0:0:0:0:
232,200,515131,1,8,0:0:0:0:
232,200,515348,1,0,0:0:0:0:
232,200,515566,1,8,0:0:0:0:
232,200,515783,1,8,0:0:0:0:
232,200,516000,1,0,0:0:0:0:
232,200,516218,1,0,0:0:0:0:
232,200,516435,1,8,0:0:0:0:
232,200,516870,1,8,0:0:0:0:
232,200,517087,1,0,0:0:0:0:
232,200,517305,1,8,0:0:0:0:
232,200,517740,1,8,0:0:0:0:
232,200,517957,1,0,0:0:0:0:
232,200,518174,1,8,0:0:0:0:
232,200,518609,1,8,0:0:0:0:
232,200,518827,1,0,0:0:0:0:
232,200,519044,1,8,0:0:0:0:
232,200,519261,1,8,0:0:0:0:
232,200,519479,1,0,0:0:0:0:
232,200,519696,1,0,0:0:0:0:
232,200,519913,1,8,0:0:0:0:
232,200,520348,1,8,0:0:0:0:
232,200,520566,1,0,0:0:0:0:
232,200,520783,1,8,0:0:0:0:
232,200,521218,1,8,0:0:0:0:
232,200,521435,1,0,0:0:0:0:
232,200,521653,1,8,0:0:0:0:
232,200,522087,1,8,0:0:0:0:
232,200,522305,1,0,0:0:0:0:
232,200,522522,1,8,0:0:0:0:
232,200,522740,1,8,0:0:0:0:
232,200,522957,1,0,0:0:0:0:
232,200,523174,1,0,0:0:0:0:
232,200,523392,1,8,0:0:0:0:
232,200,523827,1,8,0:0:0:0:
232,200,524044,1,0,0:0:0:0:
232,200,524261,1,8,0:0:0:0:
232,200,524696,1,8,0:0:0:0:
232,200,524913,1,0,0:0:0:0:
232,200,525131,1,8,0:0:0:0:
232,200,525566,1,8,0:0:0:0:
232,200,525783,1,0,0:0:0:0:
232,200,526000,1,8,0:0:0:0:
232,200,526218,1,8,0:0:0:0:
232,200,526435,1,0,0:0:0:0:
232,200,526653,1,0,0:0:0:0:
232,200,526870,1,8,0:0:0:0:
232,200,527305,1,8,0:0:0:0:
232,200,527413,1,0,0:0:0:0:
232,200,527522,1,0,0:0:0:0:
232,200,527740,1,8,0:0:0:0:
232,200,528174,1,8,0:0:0:0:
232,200,528283,1,0,0:0:0:0:
232,200,528392,1,0,0:0:0:0:
232,200,528609,1,8,0:0:0:0:
232,200,529044,1,8,0:0:0:0:
232,200,529153,1,0,0:0:0:0:
232,200,529261,1,0,0:0:0:0:
232,200,529479,1,8,0:0:0:0:
232,200,529696,1,8,0:0:0:0:
232,200,529913,1,0,0:0:0:0:
232,200,530022,1,0,0:0:0:0:
232,200,530131,1,0,0:0:0:0:
232,200,530348,1,8,0:0:0:0:
232,200,530783,1,8,0:0:0:0:
232,200,530892,1,0,0:0:0:0:
232,200,531000,1,0,0:0:0:0:
232,200,531218,1,8,0:0:0:0:
232,200,531653,1,8,0:0:0:0:
232,200,531761,1,0,0:0:0:0:
232,200,531870,1,0,0:0:0:0:
232,200,532087,1,8,0:0:0:0:
232,200,532522,1,8,0:0:0:0:
232,200,532631,1,0,0:0:0:0:
232,200,532740,1,0,0:0:0:0:
232,200,532957,1,8,0:0:0:0:
232,200,533174,1,8,0:0:0:0:
232,200,533392,1,0,0:0:0:0:
232,200,533500,1,0,0:0:0:0:
232,200,533609,1,0,0:0:0:0:
232,200,533827,1,8,0:0:0:0:
232,200,534261,1,8,0:0:0:0:
232,200,534370,1,0,0:0:0:0:
232,200,534479,1,0,0:0:0:0:
232,200,534696,1,8,0:0:0:0:
232,200,535131,1,8,0:0:0:0:
232,200,535240,1,0,0:0:0:0:
232,200,535348,1,0,0:0:0:0:
232,200,535566,1,8,0:0:0:0:
232,200,536000,1,8,0:0:0:0:
232,200,536109,1,0,0:0:0:0:
232,200,536218,1,0,0:0:0:0:
232,200,536435,1,8,0:0:0:0:
232,200,536653,1,8,0:0:0:0:
232,200,536870,1,0,0:0:0:0:
232,200,536979,1,0,0:0:0:0:
232,200,537087,1,0,0:0:0:0:
232,200,537305,1,8,0:0:0:0:
232,200,537740,1,8,0:0:0:0:
232,200,537848,1,0,0:0:0:0:
232,200,537957,1,0,0:0:0:0:
232,200,538174,1,8,0:0:0:0:
232,200,538609,1,8,0:0:0:0:
232,200,538718,1,0,0:0:0:0:
232,200,538827,1,0,0:0:0:0:
232,200,539044,1,8,0:0:0:0:
232,200,539479,1,8,0:0:0:0:
232,200,539587,1,0,0:0:0:0:
232,200,539696,1,0,0:0:0:0:
232,200,539913,1,8,0:0:0:0:
232,200,540131,1,8,0:0:0:0:
232,200,540348,1,0,0:0:0:0:
232,200,540457,1,0,0:0:0:0:
232,200,540566,1,0,0:0:0:0:
232,200,540783,1,8,0:0:0:0:
232,200,541000,1,0,0:0:0:0:
232,200,541218,1,0,0:0:0:0:
232,200,541327,1,0,0:0:0:0:
232,200,541435,1,8,0:0:0:0:
232,200,541653,1,0,0:0:0:0:
232,200,541761,1,0,0:0:0:0:
232,200,541979,1,0,0:0:0:0:
232,200,542087,1,0,0:0:0:0:
232,200,542196,1,0,0:0:0:0:
232,200,542305,1,8,0:0:0:0:
232,200,542522,1,0,0:0:0:0:
232,200,542631,1,0,0:0:0:0:
232,200,542740,1,0,0:0:0:0:
232,200,542957,1,0,0:0:0:0:
232,200,543066,1,0,0:0:0:0:
232,200,543174,1,8,0:0:0:0:
232,200,543392,1,0,0:0:0:0:
232,200,543500,1,0,0:0:0:0:
232,200,543718,1,0,0:0:0:0:
232,200,543827,1,0,0:0:0:0:
232,200,543935,1,0,0:0:0:0:
232,200,544044,1,8,0:0:0:0:
232,200,544261,1,0,0:0:0:0:
232,200,544370,1,0,0:0:0:0:
232,200,544479,1,0,0:0:0:0:
232,200,544696,1,0,0:0:0:0:
232,200,544805,1,0,0:0:0:0:
232,200,544913,1,8,0:0:0:0:
232,200,545131,1,0,0:0:0:0:
232,200,545240,1,0,0:0:0:0:
232,200,545457,1,0,0:0:0:0:
232,200,545566,1,0,0:0:0:0:
232,200,545674,1,0,0:0:0:0:
232,200,545783,1,8,0:0:0:0:
232,200,546000,1,0,0:0:0:0:
232,200,546109,1,0,0:0:0:0:
232,200,546218,1,0,0:0:0:0:
232,200,546435,1,0,0:0:0:0:
232,200,546544,1,0,0:0:0:0:
232,200,546653,1,8,0:0:0:0:
232,200,546870,1,0,0:0:0:0:
232,200,546979,1,0,0:0:0:0:
232,200,547196,1,0,0:0:0:0:
232,200,547305,1,0,0:0:0:0:
232,200,547413,1,0,0:0:0:0:
232,200,547522,1,8,0:0:0:0:
232,200,547740,1,0,0:0:0:0:
232,200,547848,1,0,0:0:0:0:
232,200,547957,1,0,0:0:0:0:
232,200,548174,1,0,0:0:0:0:
232,200,548283,1,0,0:0:0:0:
232,200,548392,1,8,0:0:0:0:
232,200,548609,1,0,0:0:0:0:
232,200,548718,1,0,0:0:0:0:
232,200,548935,1,8,0:0:0:0:
232,200,549044,1,0,0:0:0:0:
232,200,549153,1,0,0:0:0:0:
232,200,549261,1,8,0:0:0:0:
232,200,549479,1,0,0:0:0:0:
232,200,549587,1,0,0:0:0:0:
232,200,549696,1,0,0:0:0:0:
232,200,549913,1,0,0:0:0:0:
232,200,550022,1,0,0:0:0:0:
232,200,550131,1,8,0:0:0:0:
232,200,550348,1,0,0:0:0:0:
232,200,550457,1,0,0:0:0:0:
232,200,550674,1,8,0:0:0:0:
232,200,550783,1,0,0:0:0:0:
232,200,550892,1,0,0:0:0:0:
232,200,551000,1,8,0:0:0:0:
232,200,551218,1,0,0:0:0:0:
232,200,551327,1,0,0:0:0:0:
232,200,551435,1,0,0:0:0:0:
232,200,551653,1,0,0:0:0:0:
232,200,551761,1,0,0:0:0:0:
232,200,551870,1,8,0:0:0:0:
232,200,552087,1,0,0:0:0:0:
232,200,552196,1,0,0:0:0:0:
232,200,552413,1,8,0:0:0:0:
232,200,552522,1,0,0:0:0:0:
232,200,552631,1,0,0:0:0:0:
232,200,552740,1,8,0:0:0:0:
232,200,552957,1,0,0:0:0:0:
232,200,553066,1,0,0:0:0:0:
232,200,553174,1,0,0:0:0:0:
232,200,553392,1,0,0:0:0:0:
232,200,553500,1,0,0:0:0:0:
232,200,553609,1,8,0:0:0:0:
232,200,553827,1,0,0:0:0:0:
232,200,553935,1,0,0:0:0:0:
232,200,554153,1,8,0:0:0:0:
232,200,554261,1,0,0:0:0:0:
232,200,554370,1,0,0:0:0:0:
232,200,554479,1,8,0:0:0:0:
232,200,554696,1,0,0:0:0:0:
232,200,554805,1,0,0:0:0:0:
232,200,554913,1,0,0:0:0:0:
232,200,555131,1,0,0:0:0:0:
232,200,555240,1,0,0:0:0:0:
232,200,555348,1,8,0:0:0:0:
232,200,555566,1,0,0:0:0:0:
232,200,555674,1,8,0:0:0:0:
232,200,555892,1,8,0:0:0:0:
232,200,556000,1,0,0:0:0:0:
232,200,556109,1,0,0:0:0:0:
232,200,556218,1,8,0:0:0:0:
232,200,556435,1,0,0:0:0:0:
232,200,556544,1,0,0:0:0:0:
232,200,556653,1,0,0:0:0:0:
232,200,556870,1,0,0:0:0:0:
232,200,556979,1,0,0:0:0:0:
232,200,557087,1,8,0:0:0:0:
232,200,557305,1,0,0:0:0:0:
232,200,557413,1,8,0:0:0:0:
232,200,557631,1,8,0:0:0:0:
232,200,557740,1,0,0:0:0:0:
232,200,557848,1,0,0:0:0:0:
232,200,557957,1,8,0:0:0:0:
232,200,558174,1,0,0:0:0:0:
232,200,558283,1,0,0:0:0:0:
232,200,558392,1,0,0:0:0:0:
232,200,558609,1,0,0:0:0:0:
232,200,558718,1,0,0:0:0:0:
232,200,558827,1,8,0:0:0:0:
232,200,559044,1,0,0:0:0:0:
232,200,559153,1,8,0:0:0:0:
232,200,559370,1,8,0:0:0:0:
232,200,559479,1,0,0:0:0:0:
232,200,559587,1,0,0:0:0:0:
232,200,559696,1,8,0:0:0:0:
232,200,559913,1,0,0:0:0:0:
232,200,560022,1,0,0:0:0:0:
232,200,560131,1,0,0:0:0:0:
232,200,560348,1,0,0:0:0:0:
232,200,560457,1,0,0:0:0:0:
232,200,560566,1,8,0:0:0:0:
232,200,560783,1,0,0:0:0:0:
232,200,560892,1,8,0:0:0:0:
232,200,561109,1,8,0:0:0:0:
232,200,561218,1,0,0:0:0:0:
232,200,561327,1,0,0:0:0:0:
232,200,561435,1,8,0:0:0:0:
232,200,561653,1,0,0:0:0:0:
232,200,561761,1,0,0:0:0:0:
232,200,561870,1,0,0:0:0:0:
232,200,562087,1,0,0:0:0:0:
232,200,562196,1,0,0:0:0:0:
232,200,562305,1,8,0:0:0:0:
232,200,562522,1,0,0:0:0:0:
232,200,562631,1,8,0:0:0:0:
232,200,562848,1,8,0:0:0:0:
232,200,562957,1,8,0:0:0:0:
232,200,563066,1,0,0:0:0:0:
232,200,563174,1,8,0:0:0:0:
232,200,563392,1,0,0:0:0:0:
232,200,563500,1,0,0:0:0:0:
232,200,563609,1,0,0:0:0:0:
232,200,563827,1,0,0:0:0:0:
232,200,563935,1,0,0:0:0:0:
232,200,564044,1,8,0:0:0:0:
232,200,564261,1,0,0:0:0:0:
232,200,564370,1,8,0:0:0:0:
232,200,564587,1,8,0:0:0:0:
232,200,564696,1,8,0:0:0:0:
232,200,564805,1,0,0:0:0:0:
232,200,564913,1,8,0:0:0:0:
232,200,565131,1,0,0:0:0:0:
232,200,565240,1,0,0:0:0:0:
232,200,565348,1,0,0:0:0:0:
232,200,565566,1,0,0:0:0:0:
232,200,565674,1,0,0:0:0:0:
232,200,565783,1,8,0:0:0:0:
232,200,566000,1,0,0:0:0:0:
232,200,566109,1,8,0:0:0:0:
232,200,566327,1,8,0:0:0:0:
232,200,566435,1,8,0:0:0:0:
232,200,566544,1,0,0:0:0:0:
232,200,566653,1,8,0:0:0:0:
232,200,566870,1,0,0:0:0:0:
232,200,566979,1,0,0:0:0:0:
232,200,567087,1,0,0:0:0:0:
232,200,567305,1,0,0:0:0:0:
232,200,567413,1,0,0:0:0:0:
232,200,567522,1,8,0:0:0:0:
232,200,567740,1,0,0:0:0:0:
232,200,567848,1,8,0:0:0:0:
232,200,568066,1,8,0:0:0:0:
232,200,568174,1,8,0:0:0:0:
232,200,568283,1,0,0:0:0:0:
232,200,568392,1,8,0:0:0:0:
232,200,568609,1,0,0:0:0:0:
232,200,568718,1,0,0:0:0:0:
232,200,568827,1,0,0:0:0:0:
232,200,569153,1,0,0:0:0:0:
232,200,569261,1,8,0:0:0:0:
232,200,569479,1,0,0:0:0:0:
232,200,569587,1,0,0:0:0:0:
232,200,569805,1,0,0:0:0:0:
232,200,569913,1,0,0:0:0:0:
232,200,570131,1,0,0:0:0:0:
232,200,570348,1,0,0:0:0:0:
232,200,570566,1,0,0:0:0:0:
232,200,570892,1,0,0:0:0:0:
232,200,571000,1,8,0:0:0:0:
232,200,571218,1,0,0:0:0:0:
232,200,571327,1,0,0:0:0:0:
232,200,571544,1,0,0:0:0:0:
232,200,571653,1,0,0:0:0:0:
232,200,571870,1,0,0:0:0:0:
232,200,572087,1,0,0:0:0:0:
232,200,572305,1,4,0:0:0:0:
232,200,572631,1,0,0:0:0:0:
232,200,572740,1,8,0:0:0:0:
232,200,572957,1,0,0:0:0:0:
232,200,573066,1,0,0:0:0:0:
232,200,573283,1,0,0:0:0:0:
232,200,573392,1,0,0:0:0:0:
232,200,573609,1,0,0:0:0:0:
232,200,573827,1,0,0:0:0:0:
232,200,574044,1,0,0:0:0:0:
232,200,574370,1,0,0:0:0:0:
232,200,574479,1,8,0:0:0:0:
232,200,574696,1,0,0:0:0:0:
232,200,574805,1,0,0:0:0:0:
232,200,575022,1,0,0:0:0:0:
232,200,575131,1,0,0:0:0:0:
232,200,575348,1,0,0:0:0:0:
232,200,575566,1,0,0:0:0:0:
232,200,575783,1,4,0:0:0:0:
232,200,576109,1,0,0:0:0:0:
232,200,576218,1,8,0:0:0:0:
232,200,576435,1,0,0:0:0:0:
232,200,576544,1,0,0:0:0:0:
232,200,576761,1,0,0:0:0:0:
232,200,576870,1,0,0:0:0:0:
232,200,577087,1,0,0:0:0:0:
232,200,577305,1,0,0:0:0:0:
232,200,577522,1,0,0:0:0:0:
232,200,577848,1,0,0:0:0:0:
232,200,577957,1,8,0:0:0:0:
232,200,578174,1,0,0:0:0:0:
232,200,578283,1,0,0:0:0:0:
232,200,578500,1,0,0:0:0:0:
232,200,578609,1,0,0:0:0:0:
232,200,578827,1,0,0:0:0:0:
232,200,579044,1,0,0:0:0:0:
232,200,579261,1,4,0:0:0:0:
232,200,579587,1,0,0:0:0:0:
232,200,579696,1,8,0:0:0:0:
232,200,579913,1,0,0:0:0:0:
232,200,580022,1,0,0:0:0:0:
232,200,580240,1,0,0:0:0:0:
232,200,580348,1,0,0:0:0:0:
232,200,580566,1,0,0:0:0:0:
232,200,580783,1,0,0:0:0:0:
232,200,581000,1,0,0:0:0:0:
232,200,581327,1,0,0:0:0:0:
232,200,581435,1,8,0:0:0:0:
232,200,581653,1,0,0:0:0:0:
232,200,581761,1,0,0:0:0:0:
232,200,581979,1,0,0:0:0:0:
232,200,582087,1,0,0:0:0:0:
232,200,582305,1,0,0:0:0:0:
232,200,582522,1,0,0:0:0:0:
232,200,582740,1,4,0:0:0:0:
232,200,582957,1,8,0:0:0:0:
232,200,583174,1,0,0:0:0:0:
232,200,583283,1,0,0:0:0:0:
232,200,583392,1,8,0:0:0:0:
232,200,583500,1,0,0:0:0:0:
232,200,583827,1,8,0:0:0:0:
232,200,584044,1,0,0:0:0:0:
232,200,584153,1,0,0:0:0:0:
232,200,584261,1,8,0:0:0:0:
232,200,584370,1,0,0:0:0:0:
232,200,584696,1,8,0:0:0:0:
232,200,584913,1,0,0:0:0:0:
232,200,585022,1,0,0:0:0:0:
232,200,585131,1,8,0:0:0:0:
232,200,585240,1,0,0:0:0:0:
232,200,585566,1,8,0:0:0:0:
232,200,585783,1,0,0:0:0:0:
232,200,585892,1,0,0:0:0:0:
232,200,586000,1,8,0:0:0:0:
232,200,586109,1,0,0:0:0:0:
232,200,586218,1,0,0:0:0:0:
232,200,586435,1,8,0:0:0:0:
232,200,586653,1,0,0:0:0:0:
232,200,586761,1,0,0:0:0:0:
232,200,586870,1,8,0:0:0:0:
232,200,586979,1,0,0:0:0:0:
232,200,587305,1,8,0:0:0:0:
232,200,587522,1,0,0:0:0:0:
232,200,587631,1,0,0:0:0:0:
232,200,587740,1,8,0:0:0:0:
232,200,587848,1,0,0:0:0:0:
232,200,588174,1,8,0:0:0:0:
232,200,588392,1,0,0:0:0:0:
232,200,588500,1,0,0:0:0:0:
232,200,588609,1,8,0:0:0:0:
232,200,588718,1,0,0:0:0:0:
232,200,589044,1,8,0:0:0:0:
232,200,589261,1,0,0:0:0:0:
232,200,589370,1,0,0:0:0:0:
232,200,589479,1,8,0:0:0:0:
232,200,589587,1,0,0:0:0:0:
232,200,589696,1,0,0:0:0:0:
232,200,589913,1,8,0:0:0:0:
232,200,590131,1,0,0:0:0:0:
232,200,590240,1,0,0:0:0:0:
232,200,590348,1,8,0:0:0:0:
232,200,590457,1,0,0:0:0:0:
232,200,590783,1,8,0:0:0:0:
232,200,591000,1,0,0:0:0:0:
232,200,591109,1,0,0:0:0:0:
232,200,591218,1,8,0:0:0:0:
232,200,591327,1,0,0:0:0:0:
232,200,591653,1,8,0:0:0:0:
232,200,591870,1,0,0:0:0:0:
232,200,591979,1,0,0:0:0:0:
232,200,592087,1,8,0:0:0:0:
232,200,592196,1,0,0:0:0:0:
232,200,592522,1,8,0:0:0:0:
232,200,592740,1,0,0:0:0:0:
232,200,592848,1,0,0:0:0:0:
232,200,592957,1,8,0:0:0:0:
232,200,593066,1,0,0:0:0:0:
232,200,593174,1,0,0:0:0:0:
232,200,593392,1,8,0:0:0:0:
232,200,593609,1,0,0:0:0:0:
232,200,593718,1,0,0:0:0:0:
232,200,593827,1,8,0:0:0:0:
232,200,593935,1,0,0:0:0:0:
232,200,594261,1,8,0:0:0:0:
232,200,594479,1,0,0:0:0:0:
232,200,594587,1,0,0:0:0:0:
232,200,594696,1,8,0:0:0:0:
232,200,594805,1,0,0:0:0:0:
232,200,595131,1,8,0:0:0:0:
232,200,595348,1,0,0:0:0:0:
232,200,595457,1,0,0:0:0:0:
232,200,595566,1,8,0:0:0:0:
232,200,595674,1,0,0:0:0:0:
232,200,596000,1,8,0:0:0:0:
232,200,596218,1,0,0:0:0:0:
232,200,596327,1,0,0:0:0:0:
232,200,596435,1,8,0:0:0:0:
232,200,596544,1,0,0:0:0:0:
232,200,596653,1,8,0:0:0:0:
232,200,597305,1,0,0:0:0:0:
